Grateful Dead 12/28/78
Golden Hall, Community Concourse, San Diego, CA
Source Summary
flac16/48kHz Mark Severson's Master Audience Cassettes; Sony ECM-270 mics (section 404, row 8, seats 12-14) > Sony TC-158SD (TDK SA-C90); Transfer Info: Master Cassettes (Nakamichi DR-1)> Tascam DA-3000 (DSF 1-bit/5.6 MHz) > dBpoweramp 24/96 > Adobe Audition CC 2019 > TLH flac2496; 24-bit > 16-bit via dBpoweramp
Grateful Dead
Golden Hall
Community Concourse
San Diego, CA
Thursday December 28th, 1978

This is a 16/48 fileset. 24-bit > 16-bit via dBpoweramp

Source Info:
Mark Severson's Master Audience Cassettes; Sony ECM-270 mics (section 404, row 8, seats 12-14) > Sony TC-158SD (TDK SA-C90)

Transfer Info:
Master Cassettes (Nakamichi DR-1)> Tascam DA-3000 (DSF 1-bit/5.6 MHz) > dBpoweramp 24/96 > Adobe Audition CC 2019 > TLH flac2496

Notes:
- Thanks to Mark Severson for the master cassettes
- Thanks to Charlie Miller for the transfer and coordinating this effort
- Thanks to Greg Schug and Matt Smith for the Neumann SM69 source which supplies a 0:12 patch in "Truckin'"
- Pitch corrected

Mastered by Scott Clugston
February 2018

Set One:
s1t01 - Crowd
s1t02 - Sugaree
s1t03 - Electronic Weasels / Funiculi Funicula
s1t04 - Beat It On Down The Line
s1t05 - Dire Wolf
s1t06 - Looks Like Rain
s1t07 - Stagger Lee
s1t08 - Me & My Uncle >
s1t09 - Big River
s1t10 - Candyman
s1t11 - New Minglewood Blues
s1t12 - Tennessee Jed
s1t13 - Lazy Lightning >
s1t14 - Supplication

Set Two:
s2t01 - Crowd
s2t02 - Shakedown Street
s2t03 - From The Heart Of Me
s2t04 - Estimated Prophet >
s2t05 - Eyes Of The World >
s2t06 - Drums >
s2t07 - Space >
s2t08 - Truckin' >
s2t09 - Wharf Rat >
s2t10 - Sugar Magnolia
s2t11 - Encore Break
s2t12 - Johnny B. Goode

    length     expanded size    cdr  WAVE problems  fmt   ratio  filename
     0:23.573       4526124 B   cxx   --   ---xx   flac  0.5981  gd78-12-28 s1t01 Crowd.flac
    14:53.000     171456044 B   cxx   --   ---xx   flac  0.6469  gd78-12-28 s1t02 Sugaree.flac
     1:45.387      20234284 B   cxx   --   ---xx   flac  0.6084  gd78-12-28 s1t03 Funiculi Funicula.flac
     4:25.507      50977324 B   cxx   --   ---xx   flac  0.6398  gd78-12-28 s1t04 Beat It On Down The Line.flac
     6:13.173      71649324 B   cxx   --   ---xx   flac  0.6246  gd78-12-28 s1t05 Dire Wolf.flac
     9:49.307     113146924 B   cxx   --   ---xx   flac  0.6005  gd78-12-28 s1t06 Looks Like Rain.flac
     8:03.147      92764204 B   cxx   --   ---xx   flac  0.5997  gd78-12-28 s1t07 Stagger Lee.flac
     3:00.000      34560044 B   cxx   --   ---xx   flac  0.6199  gd78-12-28 s1t08 Me & My Uncle.flac
     7:49.000      90048044 B   cxx   --   ---xx   flac  0.6160  gd78-12-28 s1t09 Big River.flac
     8:53.533     102438444 B   cxx   --   ---xx   flac  0.5818  gd78-12-28 s1t10 Candyman.flac
     6:18.373      72647724 B   cxx   --   ---xx   flac  0.6233  gd78-12-28 s1t11 New Minglewood Blues.flac
     9:41.320     111613484 B   cxx   --   ---xx   flac  0.6142  gd78-12-28 s1t12 Tennessee Jed.flac
     3:36.280      41525804 B   cxx   --   ---xx   flac  0.6268  gd78-12-28 s1t13 Lazy Lightning.flac
     5:44.031      66054064 B   cxx   --   ---xx   flac  0.6327  gd78-12-28 s1t14 Supplication.flac
     1:49.827      21086764 B   cxx   --   ---xx   flac  0.5331  gd78-12-28 s2t01 Crowd.flac
    13:21.973     153978924 B   cxx   --   ---xx   flac  0.6239  gd78-12-28 s2t02 Shakedown Street.flac
     6:24.387      73802284 B   cxx   --   ---xx   flac  0.5704  gd78-12-28 s2t03 From The Heart Of Me.flac
    11:39.773     134356524 B   cxx   --   ---xx   flac  0.6049  gd78-12-28 s2t04 Estimated Prophet.flac
     9:32.427     109905964 B   cxx   --   ---xx   flac  0.6232  gd78-12-28 s2t05 Eyes Of The World.flac
     9:14.160     106398764 B   cxx   --   ---xx   flac  0.5779  gd78-12-28 s2t06 Drums.flac
     2:48.373      32327724 B   cxx   --   ---xx   flac  0.5556  gd78-12-28 s2t07 Space.flac
     8:31.920      98288684 B   cxx   --   ---xx   flac  0.6406  gd78-12-28 s2t08 Truckin'.flac
    10:12.547     117609004 B   cxx   --   ---xx   flac  0.6074  gd78-12-28 s2t09 Wharf Rat.flac
     9:16.547     106857004 B   cxx   --   ---xx   flac  0.6530  gd78-12-28 s2t10 Sugar Magnolia.flac
     5:08.053      59146284 B   cxx   --   ---xx   flac  0.6370  gd78-12-28 s2t11 Encore Break.flac
     4:36.068      53005072 B   cxx   --   ---xx   flac  0.6543  gd78-12-28 s2t12 Johnny B. Goode.flac
   183:11.686    2110404832 B                            0.6161  (26 files)


090d510342daa122cf5acb7d6336cc9b *gd78-12-28 s1t01 Crowd.flac
64c4ef22b7dbec97f5305d3d627b21b5 *gd78-12-28 s1t02 Sugaree.flac
bc5cd1f15c4da4e6ef27f42d9e29b900 *gd78-12-28 s1t03 Funiculi Funicula.flac
34f081109d86419de917e9562d7e8c5c *gd78-12-28 s1t04 Beat It On Down The Line.flac
939efd0da0c3cba567f5561c03bef621 *gd78-12-28 s1t05 Dire Wolf.flac
50f6ce4319607f375a0bd01e96545855 *gd78-12-28 s1t06 Looks Like Rain.flac
13eb77e2024ad82bb396dd1b4686b844 *gd78-12-28 s1t07 Stagger Lee.flac
c95e2c2affc767628450fa41e8213d02 *gd78-12-28 s1t08 Me & My Uncle.flac
843831aac1b7b34b99f2fdde9868af9a *gd78-12-28 s1t09 Big River.flac
1c48201e27cd35611d094d9bedfb392e *gd78-12-28 s1t10 Candyman.flac
9575dda25173bf1f77ea2cb2342233e3 *gd78-12-28 s1t11 New Minglewood Blues.flac
a0893634a92681f01038bcb372fbf44b *gd78-12-28 s1t12 Tennessee Jed.flac
d717b8782106d9fbc3f95a6d0e73cc26 *gd78-12-28 s1t13 Lazy Lightning.flac
fe173f66a61bf51fb97fc5fffe98b5a8 *gd78-12-28 s1t14 Supplication.flac
3d044f8e2872ea407a048638246c832c *gd78-12-28 s2t01 Crowd.flac
81ff5dae10550d1abcbe30894c4ecc82 *gd78-12-28 s2t02 Shakedown Street.flac
67068c3cc3360b9001c73315995b38fd *gd78-12-28 s2t03 From The Heart Of Me.flac
4f0475a8b3ecca233bf8890053c43b4f *gd78-12-28 s2t04 Estimated Prophet.flac
a232a281e42eb71396b2c22b420c5321 *gd78-12-28 s2t05 Eyes Of The World.flac
c9493080be4d4da7ee211915f961a4a2 *gd78-12-28 s2t06 Drums.flac
c5347c2be73ca747f571c73165b13184 *gd78-12-28 s2t07 Space.flac
33d820e2b463953e02994ce4d3924a9a *gd78-12-28 s2t08 Truckin'.flac
35f65b47d2833407ede4293f3285a976 *gd78-12-28 s2t09 Wharf Rat.flac
0b91c4b53c12ef868ed5cb082905bfb2 *gd78-12-28 s2t10 Sugar Magnolia.flac
68628ae11d3e2bd81f67d55f80770aaa *gd78-12-28 s2t11 Encore Break.flac
bac8e7bd8d616faef8d70326891364ef *gd78-12-28 s2t12 Johnny B. Goode.flac
ffp
gd78-12-28 s1t01 Crowd.flac:a5f7438138b7a295d00a9c61e5aa7d00
gd78-12-28 s1t02 Sugaree.flac:4b4c215294f7ac683559384d948ca8d6
gd78-12-28 s1t03 Funiculi Funicula.flac:95faaadf48f5b3880c45dafbe348bd6c
gd78-12-28 s1t04 Beat It On Down The Line.flac:6ab9fa32bb62c40aecdc60993a1beea8
gd78-12-28 s1t05 Dire Wolf.flac:4b406e6d12c225fd2a0780c41fb23e72
gd78-12-28 s1t06 Looks Like Rain.flac:4e017ee90b206c3d96b1f8dace33492d
gd78-12-28 s1t07 Stagger Lee.flac:9ae7309e66f9c815f1d16d843bede6a6
gd78-12-28 s1t08 Me & My Uncle.flac:2d42ddb604c156212609869e5f56d99b
gd78-12-28 s1t09 Big River.flac:c90b2e51f35befd020b1f1d56a30e240
gd78-12-28 s1t10 Candyman.flac:9ef98d606d1cfcd3df5836b1529a3e92
gd78-12-28 s1t11 New Minglewood Blues.flac:7c8811da790f952aa2bc5d82a21928d3
gd78-12-28 s1t12 Tennessee Jed.flac:1b68011c0934c77211dd7bdb418107a8
gd78-12-28 s1t13 Lazy Lightning.flac:b5537dcf47927bd1add01b88b112afc1
gd78-12-28 s1t14 Supplication.flac:21d816409588c27ff18685d0c40b62fb
gd78-12-28 s2t01 Crowd.flac:e9f4321b2a71ea53598358260c6663b0
gd78-12-28 s2t02 Shakedown Street.flac:9ef9423040d142a74d638e1d2df7db14
gd78-12-28 s2t03 From The Heart Of Me.flac:379ad16d47d042385cf5e68ecc385c10
gd78-12-28 s2t04 Estimated Prophet.flac:626bc001e524162ec771f26690e0331a
gd78-12-28 s2t05 Eyes Of The World.flac:5be2e6dadfd28005936ec620c2f4f069
gd78-12-28 s2t06 Drums.flac:179b051466b3a69b2e4876679962b00d
gd78-12-28 s2t07 Space.flac:a3a7889faa2b2240ef8aa4206cdd4722
gd78-12-28 s2t08 Truckin'.flac:26c4d5ecfee94a42dfbcbf71012eba33
gd78-12-28 s2t09 Wharf Rat.flac:163b009f9094d09162209e8eee24f0ca
gd78-12-28 s2t10 Sugar Magnolia.flac:3de6f722415f74d2e6d22c23db4e7709
gd78-12-28 s2t11 Encore Break.flac:47646df187824390e225319173878f43
gd78-12-28 s2t12 Johnny B. Goode.flac:506baadf8a1f6c32070e37753e030d37

Comments
etreedb.org
For administrative requests email contact@etreedb.org
This website written by Tom H Anderson and maintained by the etreedb.org community.

Cached: Fri, 30 Oct 2020 04:15:09 EDT