Grateful Dead 12/28/78
Golden Hall, Community Concourse, San Diego, CA
Source Summary
flac24; Mark Severson's Master Audience Cassettes; Sony ECM-270 mics (section 404, row 8, seats 12-14) > Sony TC-158SD (TDK SA-C90); Transfer Info: Master Cassettes (Nakamichi DR-1)> Tascam DA-3000 (DSF 1-bit/5.6 MHz) > dBpoweramp 24/96 > Adobe Audition CC 2019 > TLH flac2496
Grateful Dead
Golden Hall
Community Concourse
San Diego, CA
Thursday December 28th, 1978

Source Info:
Mark Severson's Master Audience Cassettes; Sony ECM-270 mics (section 404, row 8, seats 12-14) > Sony TC-158SD (TDK SA-C90)

Transfer Info:
Master Cassettes (Nakamichi DR-1)> Tascam DA-3000 (DSF 1-bit/5.6 MHz) > dBpoweramp 24/96 > Adobe Audition CC 2019 > TLH flac2496

Notes:
- Thanks to Mark Severson for the master cassettes
- Thanks to Charlie Miller for the transfer and coordinating this effort
- Thanks to Greg Schug and Matt Smith for the Neumann SM69 source which supplies a 0:12 patch in "Truckin'"
- Pitch corrected

Mastered by Scott Clugston
February 2018

Set One:
s1t01 - Crowd
s1t02 - Sugaree
s1t03 - Electronic Weasels / Funiculi Funicula
s1t04 - Beat It On Down The Line
s1t05 - Dire Wolf
s1t06 - Looks Like Rain
s1t07 - Stagger Lee
s1t08 - Me & My Uncle >
s1t09 - Big River
s1t10 - Candyman
s1t11 - New Minglewood Blues
s1t12 - Tennessee Jed
s1t13 - Lazy Lightning >
s1t14 - Supplication

Set Two:
s2t01 - Crowd
s2t02 - Shakedown Street
s2t03 - From The Heart Of Me
s2t04 - Estimated Prophet >
s2t05 - Eyes Of The World >
s2t06 - Drums >
s2t07 - Space >
s2t08 - Truckin' >
s2t09 - Wharf Rat >
s2t10 - Sugar Magnolia
s2t11 - Encore Break
s2t12 - Johnny B. Goode

    length     expanded size    cdr  WAVE problems  fmt   ratio  filename
     0:23.573      13578284 B   cxx   --   ---xx   flac  0.6867  gd78-12-28 s1t01 Crowd.flac
    14:53.000     514368044 B   cxx   --   ---xx   flac  0.7094  gd78-12-28 s1t02 Sugaree.flac
     1:45.387      60702764 B   cxx   --   ---xx   flac  0.6913  gd78-12-28 s1t03 Funiculi Funicula.flac
     4:25.507     152931884 B   cxx   --   ---xx   flac  0.7017  gd78-12-28 s1t04 Beat It On Down The Line.flac
     6:13.173     214947884 B   cxx   --   ---xx   flac  0.6965  gd78-12-28 s1t05 Dire Wolf.flac
     9:49.307     339440684 B   cxx   --   ---xx   flac  0.6850  gd78-12-28 s1t06 Looks Like Rain.flac
     8:03.147     278292524 B   cxx   --   ---xx   flac  0.6796  gd78-12-28 s1t07 Stagger Lee.flac
     3:00.000     103680044 B   cxx   --   ---xx   flac  0.6861  gd78-12-28 s1t08 Me & My Uncle.flac
     7:49.000     270144044 B   cxx   --   ---xx   flac  0.6840  gd78-12-28 s1t09 Big River.flac
     8:53.533     307315244 B   cxx   --   ---xx   flac  0.6717  gd78-12-28 s1t10 Candyman.flac
     6:18.373     217943084 B   cxx   --   ---xx   flac  0.6909  gd78-12-28 s1t11 New Minglewood Blues.flac
     9:41.320     334840364 B   cxx   --   ---xx   flac  0.6856  gd78-12-28 s1t12 Tennessee Jed.flac
     3:36.280     124577324 B   cxx   --   ---xx   flac  0.6902  gd78-12-28 s1t13 Lazy Lightning.flac
     5:44.031     198162110 B   cxx   --   ---xx   flac  0.6921  gd78-12-28 s1t14 Supplication.flac
     1:49.827      63260204 B   cxx   --   ---xx   flac  0.6553  gd78-12-28 s2t01 Crowd.flac
    13:21.973     461936684 B   cxx   --   ---xx   flac  0.6947  gd78-12-28 s2t02 Shakedown Street.flac
     6:24.387     221406764 B   cxx   --   ---xx   flac  0.6729  gd78-12-28 s2t03 From The Heart Of Me.flac
    11:39.773     403069484 B   cxx   --   ---xx   flac  0.6831  gd78-12-28 s2t04 Estimated Prophet.flac
     9:32.427     329717804 B   cxx   --   ---xx   flac  0.6899  gd78-12-28 s2t05 Eyes Of The World.flac
     9:14.160     319196204 B   cxx   --   ---xx   flac  0.6739  gd78-12-28 s2t06 Drums.flac
     2:48.373      96983084 B   cxx   --   ---xx   flac  0.6668  gd78-12-28 s2t07 Space.flac
     8:31.920     294865964 B   cxx   --   ---xx   flac  0.6937  gd78-12-28 s2t08 Truckin'.flac
    10:12.547     352826924 B   cxx   --   ---xx   flac  0.6821  gd78-12-28 s2t09 Wharf Rat.flac
     9:16.547     320570924 B   cxx   --   ---xx   flac  0.6980  gd78-12-28 s2t10 Sugar Magnolia.flac
     5:08.053     177438764 B   cxx   --   ---xx   flac  0.6921  gd78-12-28 s2t11 Encore Break.flac
     4:36.068     159015134 B   cxx   --   ---xx   flac  0.6976  gd78-12-28 s2t12 Johnny B. Goode.flac
   183:11.686    6331212220 B                            0.6882  (26 files)


ffp
gd78-12-28 s1t01 Crowd.flac:98cec2a4218c287239d3d233fe42b837
gd78-12-28 s1t02 Sugaree.flac:c6adb215c59aeca753c1d59347e0c481
gd78-12-28 s1t03 Funiculi Funicula.flac:0c5718072c09b6226b054a2ac719d02d
gd78-12-28 s1t04 Beat It On Down The Line.flac:c61ac71bc0cbc56e84cdd4a3d911663b
gd78-12-28 s1t05 Dire Wolf.flac:0f4d373bbf03132af1656e4370d38b1c
gd78-12-28 s1t06 Looks Like Rain.flac:4040d557a4847cf0c975fd8782c1a420
gd78-12-28 s1t07 Stagger Lee.flac:14a6c1b802649954b5e761e0b7ac561d
gd78-12-28 s1t08 Me & My Uncle.flac:ac320b2044e282fa1c6805114ae63195
gd78-12-28 s1t09 Big River.flac:dab01a489058a0842701236a94acad17
gd78-12-28 s1t10 Candyman.flac:381de453026d21dbc45db587fee8cdda
gd78-12-28 s1t11 New Minglewood Blues.flac:42f4b61c5e0117dffebab090b48ec267
gd78-12-28 s1t12 Tennessee Jed.flac:d25a2070a4783399953b498f3864b15f
gd78-12-28 s1t13 Lazy Lightning.flac:b37dc3848986e15d993b46c45cadb011
gd78-12-28 s1t14 Supplication.flac:07fc02f3a609b863d4f97493ab0b9c6f
gd78-12-28 s2t01 Crowd.flac:40575fa661dfab18a613e61e357b7b2b
gd78-12-28 s2t02 Shakedown Street.flac:93e52adaa412909cc1d0db3c08d77629
gd78-12-28 s2t03 From The Heart Of Me.flac:79b5d9248aba54f3747a28669aeb6a85
gd78-12-28 s2t04 Estimated Prophet.flac:86f6a64fc32f3f2390272a59dfec0620
gd78-12-28 s2t05 Eyes Of The World.flac:3ee77a18f66a61c4330a17e62d6d21ae
gd78-12-28 s2t06 Drums.flac:64fef80aca9055da2302946a156aa4c3
gd78-12-28 s2t07 Space.flac:ff25e46d2def0f3e46ff475b6ac79740
gd78-12-28 s2t08 Truckin'.flac:082cfe5ba51002190859bbbcda77276b
gd78-12-28 s2t09 Wharf Rat.flac:9423bd86867deafb268ee1bfdfd3b5c5
gd78-12-28 s2t10 Sugar Magnolia.flac:91d2123763d096ea05669ce2640325df
gd78-12-28 s2t11 Encore Break.flac:213e9e1b1f75a15d63a4de34862239f0
gd78-12-28 s2t12 Johnny B. Goode.flac:ce99c5991204da892b959212b7b5461f
fa2d2172ae11a1fbcf45c3c201a2d54f *gd78-12-28 s1t01 Crowd.flac
837882f6fc792b773c94b871d89f8e4e *gd78-12-28 s1t02 Sugaree.flac
a94de4902160be8dff681fbf2da253b6 *gd78-12-28 s1t03 Funiculi Funicula.flac
b9dd50b4dd4a96a020b4cc9bbb048be8 *gd78-12-28 s1t04 Beat It On Down The Line.flac
1007e1939f376e6520e676d328a9af5c *gd78-12-28 s1t05 Dire Wolf.flac
2d53e356bc384d1daff55c13f122e9b4 *gd78-12-28 s1t06 Looks Like Rain.flac
f0980d99125a18d15bb0dac942575af4 *gd78-12-28 s1t07 Stagger Lee.flac
2f128d79f44342db3cdf307f64c39e5f *gd78-12-28 s1t08 Me & My Uncle.flac
27eba8cbdc0c7d8cb2ca0f6ed7e116f7 *gd78-12-28 s1t09 Big River.flac
0b42901a30eeb7cf20c5023c3bedb416 *gd78-12-28 s1t10 Candyman.flac
160d4468ead2e31333a230c04199343a *gd78-12-28 s1t11 New Minglewood Blues.flac
95e6a7a743d79cc4230eaa5b11e07da8 *gd78-12-28 s1t12 Tennessee Jed.flac
8e4c47fb9f3d0ddd8525604766a3ae63 *gd78-12-28 s1t13 Lazy Lightning.flac
ded7148b709dd51c9cc604893f77b5c6 *gd78-12-28 s1t14 Supplication.flac
c773a29580349d91b136f88769821891 *gd78-12-28 s2t01 Crowd.flac
31338ebe85a2decfcf4bfff11960a80e *gd78-12-28 s2t02 Shakedown Street.flac
69c98845c83c456aafaf22ab91b3368f *gd78-12-28 s2t03 From The Heart Of Me.flac
825556df60f2eb2abb55192b18e67e7f *gd78-12-28 s2t04 Estimated Prophet.flac
1dec3f1c7d639ea0d4f49c294546bd06 *gd78-12-28 s2t05 Eyes Of The World.flac
1639d5e11b7a76aad55e255b1b93c9ef *gd78-12-28 s2t06 Drums.flac
466fb7e5b5b2e80d85f3e260695aed75 *gd78-12-28 s2t07 Space.flac
cec7ab2c7a266ffd2428fb9499118670 *gd78-12-28 s2t08 Truckin'.flac
5746146f80c0cb2b8b94afe20a76e2be *gd78-12-28 s2t09 Wharf Rat.flac
8dbc435f95c3f02d7f06fb2762785a1c *gd78-12-28 s2t10 Sugar Magnolia.flac
af8f40bc27175d056ea9b517cb11b572 *gd78-12-28 s2t11 Encore Break.flac
ea079ad6fdc150c7daae5ebf1c3ef47f *gd78-12-28 s2t12 Johnny B. Goode.flac

Comments
etreedb.org
For administrative requests email contact@etreedb.org
This website written by Tom H Anderson and maintained by the etreedb.org community.

Cached: Mon, 26 Oct 2020 15:22:16 EDT