Grateful Dead 12/30/78
Pauley Pavilion, UCLA, Los Angeles, CA
Source Summary
flac16/48kHz; Mark Severson's Master Audience Cassettes; Sony ECM-270 mics (left side, first row of seats above bleachers next to railing, even with the soundboard) > Sony TC-158SD (TDK SA-C90); Transfer Info: Master Cassettes (Nakamichi DR-1)> Tascam DA-3000 (DSF 1-bit/5.6 MHz) > dBpoweramp 24/96 > Adobe Audition CC 2019 > TLH flac2496; 24-bit > 16-bit via dBpoweramp
Grateful Dead
Pauley Pavilion
University of California
Los Angeles, CA
Saturday  December 30th, 1978

this is a 16/48 fileset. 24-bit > 16-bit via dBpoweramp

Source Info:
Mark Severson's Master Audience Cassettes; Sony ECM-270 mics (left side, first row of seats above bleachers next to railing, even with the soundboard) > Sony TC-158SD (TDK SA-C90)

Transfer Info:
Master Cassettes (Nakamichi DR-1)> Tascam DA-3000 (DSF 1-bit/5.6 MHz) > dBpoweramp 24/96 > Adobe Audition CC 2019 > TLH flac2496

Notes:
- Thanks to Mark Severson for the master cassettes
- Thanks to Charlie Miller for the transfer and coordinating this effort
- Thanks to Greg Schug, Steve Martin and Jack Warner for the shnid19417 Neumann SM69 source which supplies a 0:14 patch in "Fire On The Mountain"
- Thanks to Sandy Troy, Matt Smith, Charlie Miller and SirMick for the shnid137675 Neumann KM88 source which supplies a 0:12 patch in "Ollin Arrageed"
- Ollin Arrageed with Hamza el-Din
- Pitch corrected

Mastered by Scott Clugston
February 2019

Set One:
s1t01 - Crowd
s1t02 - Jack Straw
s1t03 - They Love Each Other
s1t04 - Mama Tried >
s1t05 - Mexicali Blues
s1t06 - Loser
s1t07 - Looks Like Rain
s1t08 - Stagger Lee
s1t09 - Passenger
s1t10 - Tennessee Jed
s1t11 - New Minglewood Blues
s1t12 - Sugaree
s1t13 - Promised Land

Set Two:
s2t01 - Crowd
s2t02 - I Need A Miracle >
s2t03 - Bertha >
s2t04 - Good Lovin'
s2t05 - Scarlet Begonias >
s2t06 - Fire On The Mountain
s2t07 - Playin' In The Band >
s2t08 - Shakedown Street >
s2t09 - Drums >
s2t10 - Ollin Arrageed >
s2t11 - Space >
s2t12 - St. Stephen >
s2t13 - Not Fade Away >
s2t14 - Goin' Down The Road Feeling Bad >
s2t15 - Around & Around
s2t16 - Encore Break
s2t17 - One More Saturday Night

    length     expanded size    cdr  WAVE problems  fmt   ratio  filename
     1:04.627      12408364 B   cxx   --   ---xx   flac  0.6353  gd78-12-30 s1t01 Crowd.flac
     6:13.360      71685164 B   cxx   --   ---xx   flac  0.6445  gd78-12-30 s1t02 Jack Straw.flac
     8:26.573      97262124 B   cxx   --   ---xx   flac  0.6137  gd78-12-30 s1t03 They Love Each Other.flac
     2:27.133      28249644 B   cxx   --   ---xx   flac  0.6316  gd78-12-30 s1t04 Mama Tried.flac
     5:39.920      65264684 B   cxx   --   ---xx   flac  0.6034  gd78-12-30 s1t05 Mexicali Blues.flac
     8:45.147     100828204 B   cxx   --   ---xx   flac  0.5957  gd78-12-30 s1t06 Loser.flac
    10:07.600     116659244 B   cxx   --   ---xx   flac  0.5879  gd78-12-30 s1t07 Looks Like Rain.flac
     7:22.347      84930604 B   cxx   --   ---xx   flac  0.6037  gd78-12-30 s1t08 Stagger Lee.flac
     7:36.587      87664684 B   cxx   --   ---xx   flac  0.6036  gd78-12-30 s1t09 Passenger.flac
    11:26.747     131855404 B   cxx   --   ---xx   flac  0.6025  gd78-12-30 s1t10 Tennessee Jed.flac
     7:27.880      85993004 B   cxx   --   ---xx   flac  0.6062  gd78-12-30 s1t11 New Minglewood Blues.flac
    11:20.080     130575404 B   cxx   --   ---xx   flac  0.6069  gd78-12-30 s1t12 Sugaree.flac
     4:52.740      56206152 B   cxx   --   ---xx   flac  0.6445  gd78-12-30 s1t13 Promised Land.flac
     1:49.787      21079084 B   cxx   --   ---xx   flac  0.5586  gd78-12-30 s2t01 Crowd.flac
     4:15.827      49118764 B   cxx   --   ---xx   flac  0.6329  gd78-12-30 s2t02 I Need A Miracle.flac
     6:35.920      76016684 B   cxx   --   ---xx   flac  0.6391  gd78-12-30 s2t03 Bertha.flac
     9:42.347     111810604 B   cxx   --   ---xx   flac  0.6225  gd78-12-30 s2t04 Good Lovin'.flac
     9:38.587     111088684 B   cxx   --   ---xx   flac  0.6282  gd78-12-30 s2t05 Scarlet Begonias.flac
    14:54.107     171668524 B   cxx   --   ---xx   flac  0.5981  gd78-12-30 s2t06 Fire On The Mountain.flac
     7:34.267      87219244 B   cxx   --   ---xx   flac  0.6174  gd78-12-30 s2t07 Playin' In The Band.flac
     8:58.707     103431724 B   cxx   --   ---xx   flac  0.6240  gd78-12-30 s2t08 Shakedown Street.flac
    10:55.093     125777964 B   cxx   --   ---xx   flac  0.6004  gd78-12-30 s2t09 Drums.flac
    14:02.213     161705004 B   cxx   --   ---xx   flac  0.5812  gd78-12-30 s2t10 Ollin Arrageed.flac
     2:02.013      23426604 B   cxx   --   ---xx   flac  0.5736  gd78-12-30 s2t11 Space.flac
     7:48.600      89971244 B   cxx   --   ---xx   flac  0.6095  gd78-12-30 s2t12 St. Stephen.flac
     7:16.720      83850284 B   cxx   --   ---xx   flac  0.6188  gd78-12-30 s2t13 Not Fade Away.flac
     6:24.773      73876524 B   cxx   --   ---xx   flac  0.6159  gd78-12-30 s2t14 Goin' Down The Road.flac
     9:19.653     107453484 B   cxx   --   ---xx   flac  0.6255  gd78-12-30 s2t15 Around & Around.flac
     1:16.083      14607888 B   cxx   --   ---xx   flac  0.5688  gd78-12-30 s2t16 Encore Break.flac
     5:01.703      57927056 B   cxx   --   ---xx   flac  0.6279  gd78-12-30 s2t17 One More Saturday Night.flac
   220:27.139    2539612044 B                            0.6103  (30 files)


ffp
gd78-12-30 s1t01 Crowd.flac:26c594ecb163d0cbb91d332dbf89ed29
gd78-12-30 s1t02 Jack Straw.flac:bd25c6acaf2158985b56f130dc48de97
gd78-12-30 s1t03 They Love Each Other.flac:042c3b0094a67bc6cea6cd6164abd029
gd78-12-30 s1t04 Mama Tried.flac:8a8e80f5f4396fdaa65a172d5562e5ff
gd78-12-30 s1t05 Mexicali Blues.flac:8935a40a82aa2be30e2ed0ab68f6868d
gd78-12-30 s1t06 Loser.flac:ee3e75e2aa408743fea48d0a694a8e29
gd78-12-30 s1t07 Looks Like Rain.flac:260c63049f75a7ac373c70c5a9074865
gd78-12-30 s1t08 Stagger Lee.flac:54724292bf6ec29d2d7227cc599974ff
gd78-12-30 s1t09 Passenger.flac:ccd00e6c32cda29b6b063df799e38fe8
gd78-12-30 s1t10 Tennessee Jed.flac:155de23135f179b684d665430cd69d9e
gd78-12-30 s1t11 New Minglewood Blues.flac:d721405a017d994acb7199f23bcf362c
gd78-12-30 s1t12 Sugaree.flac:fcfcdc96176b10992389ed4ae8e5bd3d
gd78-12-30 s1t13 Promised Land.flac:a61f5819af0c914ef7e736ec07db95af
gd78-12-30 s2t01 Crowd.flac:6258bdcbe070c250100e41111dffc0c3
gd78-12-30 s2t02 I Need A Miracle.flac:c31584356cfe74710aa8d03a8054d4a0
gd78-12-30 s2t03 Bertha.flac:71a97b567fafbb538f6c523ea98a1d52
gd78-12-30 s2t04 Good Lovin'.flac:221d984bc2d3536fc77a2aaba607bfe3
gd78-12-30 s2t05 Scarlet Begonias.flac:7225a0906ff99ff82afbbae66aafa8a3
gd78-12-30 s2t06 Fire On The Mountain.flac:748da834bc2e62d090de09a22ba25eae
gd78-12-30 s2t07 Playin' In The Band.flac:432bc5947addd9cdae6a7c097c3ad49d
gd78-12-30 s2t08 Shakedown Street.flac:3bea6154b6df36a20b27a5f9ee821e6a
gd78-12-30 s2t09 Drums.flac:5c9db1fd7ee7fe9b3c8b37f75d970f69
gd78-12-30 s2t10 Ollin Arrageed.flac:9f98d391032e31fbcef7c0890feb91ab
gd78-12-30 s2t11 Space.flac:4dbff65892d51f323ac83d24f883699c
gd78-12-30 s2t12 St. Stephen.flac:2c40bfb0fad68f385766f2568870cd0d
gd78-12-30 s2t13 Not Fade Away.flac:fb86454b3b3f9b31a0e5046cc1c1e254
gd78-12-30 s2t14 Goin' Down The Road.flac:09683e79dadbf1dd46e7e6452cde69d1
gd78-12-30 s2t15 Around & Around.flac:dfe151abf38a610c87671db72ea2e502
gd78-12-30 s2t16 Encore Break.flac:178cc0606d437c2d540d9a26833267c7
gd78-12-30 s2t17 One More Saturday Night.flac:ffc17fa15e77d05bfce7f71c0e7dfdf8
45925eef89d3efb5a07bef259ff57e8a *gd78-12-30 s1t01 Crowd.flac
c324801b7c53f93701c39459dfe78a17 *gd78-12-30 s1t02 Jack Straw.flac
b0f476638d340223573c96f65b40d10e *gd78-12-30 s1t03 They Love Each Other.flac
e27037f551b95670632c4ddd21638417 *gd78-12-30 s1t04 Mama Tried.flac
c2a0b49de921014d9aa17cff1fadc7d7 *gd78-12-30 s1t05 Mexicali Blues.flac
cd0f5e09f2837184724bf8c74dcedd88 *gd78-12-30 s1t06 Loser.flac
135bad448b240a658c8e6aa69b37f814 *gd78-12-30 s1t07 Looks Like Rain.flac
aca8da40ec36b860909b60fbfd425ae6 *gd78-12-30 s1t08 Stagger Lee.flac
df30bd0b504a1b4605920fb6243cb7cd *gd78-12-30 s1t09 Passenger.flac
ec741083e99ebddc6233b7eda2378ce2 *gd78-12-30 s1t10 Tennessee Jed.flac
45b82ee0eba0e3118114a731e7863295 *gd78-12-30 s1t11 New Minglewood Blues.flac
9aa58639f58ffc368d9df2a72f90aafd *gd78-12-30 s1t12 Sugaree.flac
dcee0a4c23dc76979f39dca594f94e94 *gd78-12-30 s1t13 Promised Land.flac
4d6068c28e00de44d2f6c4441b69252c *gd78-12-30 s2t01 Crowd.flac
a6fa37569fe13eb7961bfcc2b7d09a32 *gd78-12-30 s2t02 I Need A Miracle.flac
698692556e43a3fbcb41ee133545e433 *gd78-12-30 s2t03 Bertha.flac
c5f2c9d45686e8224688ccf4f6972f18 *gd78-12-30 s2t04 Good Lovin'.flac
38bdf9bcb0e372fe322b9e20045e0610 *gd78-12-30 s2t05 Scarlet Begonias.flac
b940b1a7ada8719ce55350cd5f3a035b *gd78-12-30 s2t06 Fire On The Mountain.flac
7319c829a9da1c7f8c4d853f48d30968 *gd78-12-30 s2t07 Playin' In The Band.flac
cb8e968633709cf04edc7a3ef212b1b2 *gd78-12-30 s2t08 Shakedown Street.flac
ded08ee215eed15a8d2a6a06fad16266 *gd78-12-30 s2t09 Drums.flac
e2438eac36a0ef55f7a5bfc4be55deff *gd78-12-30 s2t10 Ollin Arrageed.flac
d304451a67e49629a535687ceb00f57b *gd78-12-30 s2t11 Space.flac
ec7e1379650e19994f76de40f7e562a8 *gd78-12-30 s2t12 St. Stephen.flac
f62325f375ef77435fd0d8361984999a *gd78-12-30 s2t13 Not Fade Away.flac
a0acfb21e14247d4e6196f259f659a70 *gd78-12-30 s2t14 Goin' Down The Road.flac
0493a9cf6cf15a922db9bcc6381c6347 *gd78-12-30 s2t15 Around & Around.flac
e19868d09ada806a6a61bb2b6e562e50 *gd78-12-30 s2t16 Encore Break.flac
0b559531e094234cfc13d84781b923c5 *gd78-12-30 s2t17 One More Saturday Night.flac

Comments
etreedb.org
For administrative requests email contact@etreedb.org
This website written by Tom H Anderson and maintained by the etreedb.org community.

Cached: Tue, 17 Sep 2019 13:26:20 EDT