Garcia 11/11/94
Henry J. Kaiser Convention Center, Oakland, CA
Source # 145714
Entered by Matt Vernon
Checksums ffp
Disc Counts 0 / 0
Media Size
Date Circulated
Date Added

03/18/2019
Source Summary
flac16/44.1khz Source Info: FOB Schoeps CMC5 Mk4-> DAT Transfer Info: Dat Tape (Panasonic SV-3700)-> Marantz CDR-615-> CD (Late 90's) Extract Wav-> Flac Level 8-> Tagged (16/44.1) Transfers by Pete Ebel
Jerry Garcia Band
Henry J. Kaiser Convention Center - Oakland - CA
November 11, 1994

Source Info:
FOB Schoeps CMC5 Mk4-> DAT

Transfer Info:
Dat Tape (Panasonic SV-3700)-> Marantz CDR-615-> CD (Late 90's)
Extract Wav-> Flac Level 8-> Tagged (16/44.1)


Transfers by Pete Ebel
Late 90's and March 17, 2019



Set #1:
01. Cats Under The Stars
02. They Love Each Other
03. Mission In The Rain
04. Run For The Roses
05. Simple Twist Of Fate
06. Sisters & Brothers
07. Deal

Set #2:
08. How sweet It Is
09. Shining Star
10. Tore Up
11. The Maker
12. Wonderful World
13. Don't Let Go
14. Lucky Old Sun
15. Midnight Moonlight




SHNTOOL OUTPUT:
    length     expanded size    cdr  WAVE problems  fmt   ratio  filename
    12:51.14      136037372 B   ---   --   ---xx   flac  0.5203  01 Cats Under The Stars.flac
    10:04.36      106630316 B   ---   --   ---xx   flac  0.5001  02 They Love Each Other.flac
    10:03.71      106536236 B   ---   --   ---xx   flac  0.4885  03 Mission In The Rain.flac
     5:53.40       62363324 B   ---   --   ---xx   flac  0.5197  04 Run For The Roses.flac
    12:08.15      128454524 B   ---   --   ---xx   flac  0.4298  05 Simple Twist Of Fate.flac
     3:52.74       41098892 B   ---   --   ---xx   flac  0.5177  06 Sisters & Brothers.flac
     8:59.44       95183132 B   ---   --   ---xx   flac  0.5592  07 Deal.flac
     7:21.68       77952380 B   ---   --   ---xx   flac  0.5143  08 How sweet It Is.flac
    20:32.71      217491836 B   ---   --   ---xx   flac  0.4766  09 Shining Star.flac
    10:12.68      108116780 B   ---   --   ---xx   flac  0.5114  10 Tore Up.flac
    11:59.45      126937484 B   ---   --   ---xx   flac  0.4873  11 The Maker.flac
     4:43.10       49944764 B   ---   --   ---xx   flac  0.5102  12 Wonderful World.flac
    14:18.21      151400636 B   ---   --   ---xx   flac  0.5212  13 Don't Let Go.flac
     5:14.02       55394348 B   ---   --   ---xx   flac  0.4555  14 Lucky Old Sun.flac
     6:13.68       65957180 B   ---   --   ---xx   flac  0.5596  15 Midnight Moonlight.flac
   144:30.47     1529499204 B                            0.5006  (15 files)





ffp:
01 Cats Under The Stars.flac:2fdf39cbf1a7359888d08c7c13be6549
02 They Love Each Other.flac:96bb8025fd3de4945a15a2b866073db8
03 Mission In The Rain.flac:e9f8e5244d066401878b7295ffcb6169
04 Run For The Roses.flac:12b82f030d3d87bcd598c7c0e91ea65d
05 Simple Twist Of Fate.flac:bc49dfd1d9b354db87b6a7b69a47a4af
06 Sisters & Brothers.flac:745fbe1627eb18bf831e2175b23f7654
07 Deal.flac:3c38749ca5313c83a9a3216197513413
08 How sweet It Is.flac:2ace9f135e8302d94f56ca3c8db051d9
09 Shining Star.flac:0ffb70e570ce4b387255b3479a18fe91
10 Tore Up.flac:83a9e90876d4b8c7fe4631654896d70d
11 The Maker.flac:614cefd06e343d00ddc5da08d5d43d1f
12 Wonderful World.flac:b7a522f0554dc3505a7aa9211c303ddb
13 Don't Let Go.flac:09f62dda52b56003260eecf44bfb4f00
14 Lucky Old Sun.flac:0bedc57b57eb767fb1bd32ec6cce8a90
15 Midnight Moonlight.flac:408783f5b40c6aa8efe147d62c50791d
ffp
01 Cats Under The Stars.flac:2fdf39cbf1a7359888d08c7c13be6549
02 They Love Each Other.flac:96bb8025fd3de4945a15a2b866073db8
03 Mission In The Rain.flac:e9f8e5244d066401878b7295ffcb6169
04 Run For The Roses.flac:12b82f030d3d87bcd598c7c0e91ea65d
05 Simple Twist Of Fate.flac:bc49dfd1d9b354db87b6a7b69a47a4af
06 Sisters & Brothers.flac:745fbe1627eb18bf831e2175b23f7654
07 Deal.flac:3c38749ca5313c83a9a3216197513413
08 How sweet It Is.flac:2ace9f135e8302d94f56ca3c8db051d9
09 Shining Star.flac:0ffb70e570ce4b387255b3479a18fe91
10 Tore Up.flac:83a9e90876d4b8c7fe4631654896d70d
11 The Maker.flac:614cefd06e343d00ddc5da08d5d43d1f
12 Wonderful World.flac:b7a522f0554dc3505a7aa9211c303ddb
13 Don't Let Go.flac:09f62dda52b56003260eecf44bfb4f00
14 Lucky Old Sun.flac:0bedc57b57eb767fb1bd32ec6cce8a90
15 Midnight Moonlight.flac:408783f5b40c6aa8efe147d62c50791d

Comments
Other Sources (comments)
Jerry Garcia Band: FOB... (0)
Date User Comment
etreedb.org
For administrative requests email contact@etreedb.org
This website written by Tom H Anderson and maintained by the etreedb.org community.

Cached: Thu, 28 Oct 2021 09:42:36 EDT