New Riders of the Purple Sage 04/27/77
Ivanhoe Theater, Chicago, IL
Source # 145787
Entered by Scott
Checksums nrps1977-04-27.ffp , nrps1977-04-27.md5 , shntool output
Disc Counts 0 / 0
Media Size Compressed: 357.14 MB (374493050 bytes)
Uncompressed: 585.64 MB (614089088 bytes)
Date Circulated
Date Added
03/24/2019
03/24/2019
Source Summary
WXRT-FM Chicago > Pat Lee's Reel Master [Flac 16]
New Riders Of The Purple Sage
The Ivanhoe Theater
Chicago, IL
04/27/1977 - recorded *
06/19/1977 - broadcast

WXRT 93.1 FM - UnConcert Series

Source: WXRT-FM Chicago > Pat Lee's Reel Master
Transfer: Reel > Technics RS1506 > Tascam DA3000 (1 bit DSD) > dB poweramp > wav 24/96 - Transferred by Matt Smith
Lineage: wav 24/96 > Adobe Audition 3 > iZotope RX7 Advanced > iZotope Ozone 5 Advanced > iZotope RX7 Advanced >  wav 16/44.1 > CD Wave > Flac 16



01   intro
02   Panama Red
03   15 Days Under The Hood
04   By And By When I Need You
05   Louisiana Lady
06   Henry
07   Just Another Night In Reno
08   Home Grown
09   Lonesome LA Cowboy
10   Love Has Strange Ways
11   Red Hot Women And Ice Cold Beer
12   Whiskey
13   She's Looking Better Every Beer
14   You Never Can Tell
15   Heineken Slide
16   Up Against The Wall, Redneck Mother




John "Marmaduke" Dawson - vocals, guitar
David Nelson - guitar, vocals
Buddy Cage - pedal steel
Stephen Love - bass
Spencer Dryden - drums



Comments:

- THE NRPS website shows the date as 12/07/1997 but there is a photograph in the Getty Archive of Marmaduke with the caption "The New Riders Of The Purple Sage Performing, John Dawson of the New Riders of the Purple Sage at the Ivanhoe Theater in Chicago, Illinois, April 27, 1977. (Photo by Paul Natkin/Getty Images)". *



Thanks to Pat Lee for his recording.

Thanks to Matt Smith for the transfer.


edited and mastered
SIRMick
March 2019


nrps1977-04-27t01.flac:a8f8a6128511993594a1da519aff0f83
nrps1977-04-27t02.flac:4c3a8abeae86f93c52fe34a7c297d80a
nrps1977-04-27t03.flac:646e35a303df7429b8ffb8de41e7b2b2
nrps1977-04-27t04.flac:fd9c65b35cbedad293bc26dc77cc1c4e
nrps1977-04-27t05.flac:489861bee6097affc27f9cf20bf56b00
nrps1977-04-27t06.flac:e14056a6fa6fb4dfe53601eccb67782e
nrps1977-04-27t07.flac:fcd0c37f2fe224e49166a8c032385dd1
nrps1977-04-27t08.flac:928d1fc720fde52f8a663d0e29df10c5
nrps1977-04-27t09.flac:429034ed53d74f8c14efd9091df40a61
nrps1977-04-27t10.flac:0b7ec8b2e5f84069a399ff7a46488130
nrps1977-04-27t11.flac:004561ef40823751ed1f790aa468f6a1
nrps1977-04-27t12.flac:6af8f4bafdf511c1174758d7292bc791
nrps1977-04-27t13.flac:8806351b9dee087cef1181412124b0f4
nrps1977-04-27t14.flac:03aff9809f1cb075094fe9a8b6ebf73a
nrps1977-04-27t15.flac:41ef7fc7c7b3e75a946edd1117b23b3b
nrps1977-04-27t16.flac:f15e93bfcc9d39035b8bd36429331a56
a00c925b2633332d3088f521a60c3396 *nrps1977-04-27t01.flac
64658207073270e4755607d1fbb3df62 *nrps1977-04-27t02.flac
674ede359d66dea21b68bfc27667ddff *nrps1977-04-27t03.flac
32a5037815b049442ed789ac1ee23a39 *nrps1977-04-27t04.flac
cdc009148b137b9e268b391cbff1695d *nrps1977-04-27t05.flac
d376a8c74a0821692db0e1d526ca3bbf *nrps1977-04-27t06.flac
e41d42ea729565edc3ce5fca499cab81 *nrps1977-04-27t07.flac
766a9c56d9607b8463ddb338c1a41079 *nrps1977-04-27t08.flac
4c29ddb5fdbc85830c23edb3cade21c5 *nrps1977-04-27t09.flac
3b8f471637ff0df4d57fff996a529b83 *nrps1977-04-27t10.flac
596d2ea389a9220cbaf661c90ebc8000 *nrps1977-04-27t11.flac
d3fcb69ce2e59e52ae8b32c96d3d6a44 *nrps1977-04-27t12.flac
2670b2f7c317012df216cf91f420fc4d *nrps1977-04-27t13.flac
dc6e24ea2697da1f4a3cc6766ed5aeaf *nrps1977-04-27t14.flac
fb80b430b7ee6e3110045080232377a7 *nrps1977-04-27t15.flac
d16d573506b90cc551810a25a1b13c6b *nrps1977-04-27t16.flac
length expanded size cdr WAVE problems fmt ratio filename
0:09.20 1634684 B --- -- ---xx flac 0.5733 nrps1977-04-27t01.flac
3:21.03 35463500 B --- -- ---xx flac 0.6248 nrps1977-04-27t02.flac
4:02.47 42799388 B --- -- ---xx flac 0.6284 nrps1977-04-27t03.flac
2:13.14 23494172 B --- -- ---xx flac 0.6290 nrps1977-04-27t04.flac
3:55.11 41479916 B --- -- ---xx flac 0.6303 nrps1977-04-27t05.flac
4:41.60 49709564 B --- -- ---xx flac 0.6250 nrps1977-04-27t06.flac
3:21.52 35578748 B --- -- ---xx flac 0.5856 nrps1977-04-27t07.flac
3:49.29 40463852 B --- -- ---xx flac 0.5963 nrps1977-04-27t08.flac
4:01.42 42611228 B --- -- ---xx flac 0.6135 nrps1977-04-27t09.flac
5:28.26 57920396 B --- -- ---xx flac 0.6239 nrps1977-04-27t10.flac
4:03.19 42909932 B --- -- ---xx flac 0.5990 nrps1977-04-27t11.flac
3:25.29 36230252 B --- -- ---xx flac 0.6116 nrps1977-04-27t12.flac
2:49.05 29823404 B --- -- ---xx flac 0.6046 nrps1977-04-27t13.flac
4:56.06 52228556 B --- -- ---xx flac 0.6160 nrps1977-04-27t14.flac
3:36.39 38194172 B --- -- ---xx flac 0.5624 nrps1977-04-27t15.flac
4:06.65 43547324 B --- -- ---xx flac 0.5909 nrps1977-04-27t16.flac
58:01.17 614089088 B 0.6098 (16 files)

Comments
Other Sources (comments)
FMMR > DAT > WAV > SHN... (1) WXRT-FM Chicago > Pat Lee's... (0)
Date User Comment
etreedb.org
For administrative requests email contact@etreedb.org
This website written by Tom H Anderson and maintained by the etreedb.org community.

Cached: Thu, 5 Aug 2021 18:07:23 EDT