Garcia 08/08/93
Portland Meadows, Portland, OR
Source # 145996
Entered by Joe Jupille
Checksums jgb93-08-08.aud.williams.bandrofcheck.md5
Disc Counts 0 / 0
Media Size Compressed: 1.16 GB (1246475944 bytes)
Date Circulated
Date Added
04/06/2019
04/06/2019
Source Summary
JGB; flac16; Primo Williams's Sony D6 -> MAC > Sony TCM-TE425 (azumth adjed) -> Sound Blaster Audigy 4! > Sound Forge 5.0 > CD Wav -> flac16. SBEs fixed using TLH. Tape flips and dead spots > crossfaded using Sound Forge 5.0. xfer Charles Bandrofcheck
Jerry Garcia Band
Portland Meadows
Portland, OR
08-08-93

Sony D6 -> MAC > Sony TCM-TE425 (azumth adjed) -> Sound Blaster Audigy 4! >
Sound Forge 5.0 > CD Wav -> flac16.
SBEs fixed using TLH.

Tape flips and dead spots > crossfaded using Sound Forge 5.0

Recorded by Primo Williams xfer Charles Bandrofcheck


Set 1

Disc 1

01 Cats Under The Stars
02 Mission In The Rain
03 That's What Love Will Make You Do
04 And It Stoned Me
05 The Maker
06 Money Honey
07 My Sisters And Brothers



Set 2

Disc 2

2-01 The Way You Do The Things You Do
2-02 Wonderful World
2-03 Tore Up Over You
2-04 Ain't No Bread In The Breadbox
2-05 Rubin And Cherise
2-06 The Night they Drove Old Dixie Down
2-07 Tangled Up In Blue

-------------------------------------------------------------------

    length     expanded size    cdr  WAVE problems  fmt   ratio  filename
     8:54.65       94350524 B   ---   --   -----    wav  1.0000  1-01 Cats Under The Stars.wav
     8:27.01       89437196 B   ---   --   -----    wav  1.0000  1-02 Mission In The Rain.wav
     8:39.35       91633964 B   ---   --   -----    wav  1.0000  1-03 That's What Love Will Make You Do.wav
     9:38.61      102102716 B   ---   --   -----    wav  1.0000  1-04 And I Stoned Me.wav
     7:18.68       77423180 B   ---   --   -----    wav  1.0000  1-05 The Maker.wav
     5:46.38       61123820 B   ---   --   -----    wav  1.0000  1-06 Money Honey.wav
     4:17.58       45471260 B   ---   --   -----    wav  1.0000  1-07 My Sisters And Brothers.wav
    12:13.22      129352988 B   ---   --   -----    wav  1.0000  2-01 The Way You Do The Thing You Do.wav
     5:31.35       58470764 B   ---   --   -----    wav  1.0000  2-02 Wonderful World.wav
     8:28.22       89662988 B   ---   --   -----    wav  1.0000  2-03 Tore Up Over You.wav
     8:20.72       88369388 B   ---   --   -----    wav  1.0000  2-04 Ain't No Bread In The Breadbox.wav
     8:06.71       85897436 B   ---   --   -----    wav  1.0000  2-05 Rubin And Cherise.wav
     9:21.20       99007484 B   ---   --   -----    wav  1.0000  2-06 The Night They Drove Old Dixie Down.wav
    12:40.46      134172236 B   ---   --   -----    wav  1.0000  2-07 Tangled Up In Blue.wav
   117:46.14     1246475944 B                            1.0000  (14 files)

-------------------------------------------------------------------

    length     expanded size    cdr  WAVE problems  fmt   ratio  filename
     8:54.65       94350524 B   ---   --   ---xx   flac  0.6451  1-01 Cats Under The Stars.flac
     8:27.01       89437196 B   ---   --   ---xx   flac  0.6338  1-02 Mission In The Rain.flac
     8:39.35       91633964 B   ---   --   ---xx   flac  0.6393  1-03 That's What Love Will Make You Do.flac
     9:38.61      102102716 B   ---   --   ---xx   flac  0.6451  1-04 And I Stoned Me.flac
     7:18.68       77423180 B   ---   --   ---xx   flac  0.6307  1-05 The Maker.flac
     5:46.38       61123820 B   ---   --   ---xx   flac  0.6517  1-06 Money Honey.flac
     4:17.58       45471260 B   ---   --   ---xx   flac  0.6232  1-07 My Sisters And Brothers.flac
    12:13.22      129352988 B   ---   --   ---xx   flac  0.5931  2-01 The Way You Do The Thing You Do.flac
     5:31.35       58470764 B   ---   --   ---xx   flac  0.5914  2-02 Wonderful World.flac
     8:28.22       89662988 B   ---   --   ---xx   flac  0.6178  2-03 Tore Up Over You.flac
     8:20.72       88369388 B   ---   --   ---xx   flac  0.6341  2-04 Ain't No Bread In The Breadbox.flac
     8:06.71       85897436 B   ---   --   ---xx   flac  0.6316  2-05 Rubin And Cherise.flac
     9:21.20       99007484 B   ---   --   ---xx   flac  0.6209  2-06 The Night They Drove Old Dixie Down.flac
    12:40.46      134172236 B   ---   --   ---xx   flac  0.6348  2-07 Tangled Up In Blue.flac
   117:46.14     1246475944 B                            0.6279  (14 files)



cd4aee6fc72f8b260eaca6698d6a5269 *1-01 Cats Under The Stars.flac
6661d2a627ab2865da6143d9423f8e44 *1-02 Mission In The Rain.flac
6df09aee96c374dad08199bc6168def5 *1-03 That's What Love Will Make You Do.flac
551bd72a343d5632eed3c38ccd91628a *1-04 And I Stoned Me.flac
a73ab507fbfde41d00055ad4167a4a5b *1-05 The Maker.flac
c295bb9383dd2a3c84c45f274e7cd4e9 *1-06 Money Honey.flac
be0fa3948ede5c558107870c013ed273 *1-07 My Sisters And Brothers.flac
394e68beb5129db153d38fee1f672b8b *2-01 The Way You Do The Thing You Do.flac
bc083f434574dc955f9028b0db730931 *2-02 Wonderful World.flac
cc8bffa27105ffe8529360726205762e *2-03 Tore Up Over You.flac
c61515d54badfd365314eebc595a4088 *2-04 Ain't No Bread In The Breadbox.flac
120a07a98a1e4452dd60a1e226e3032d *2-05 Rubin And Cherise.flac
7112c3edc3bcf403bed7225c746c4324 *2-06 The Night They Drove Old Dixie Down.flac
7ba097fa73866b361d7c7268549dc63c *2-07 Tangled Up In Blue.flac

Comments
Other Sources (comments)
JGB: Mark Severson; 2 Sonic... (0) JGB, flac1644: Chuck... (0)
Date User Comment
etreedb.org
For administrative requests email contact@etreedb.org
This website written by Tom H Anderson and maintained by the etreedb.org community.

Cached: Thu, 28 Oct 2021 10:05:52 EDT