Tedeschi Trucks Band 04/27/19
London Palladium, London, England
Source # 146223
Entered by ziko
Checksums md5 , ffp
Disc Counts 0 / 0
Media Size Compressed: 825.21 MB (865292288 bytes)
Uncompressed: 1.42 GB (1520594884 bytes)
Date Circulated
Date Added
05/02/2019
05/02/2019
Source Summary
Source: AT833b's > Roland R-07 > wav 24/96 Lineage: Wav 24/96 > iZotope RX7 Advanced >iZotope Neutron 2 > iZotope RX7 Advanced > wav 16/44.1 > CD Wave > Flac 16 recorded, edited and mastered SIRMick
Tedeschi Trucks Band
London Palladium,
London, England
04/27/2019


Source: AT833b's > Roland R-07 > wav 24/96
Lineage: Wav 24/96 > iZotope RX7 Advanced >iZotope Neutron 2 >  iZotope RX7 Advanced > wav 16/44.1 > CD Wave > Flac 16


Set I

01   crowd
02   Signs, High Times
03   Don't Drift Away
04   Don't Know What It Means >
05   The Letter
06   Part Of Me
07   It's So Heavy
08   Key To The Highway *
09   I Want More


Set II

01   crowd
02   Idle Wind >
03   Rastaman Chant >
04   Idle Wind
05   Walk Through This Life
06   High And Mighty
07   Bird On The Wire
08   Space Captain
09   I Pity The Fool
10   Get What You Deserve *
11   Dreams >
12   The Storm
13   ~~encore break~~

encore

14   Bound for Glory #




Derek Trucks - guitar
Susan Tedeschi - guitar, vocals
Tyler Greenwell - drums, percussion
J.J. Johnson - drums, percussion
Brandon Boone - bass
Gabe Dixon - keyboards
Mike Mattison - harmony vocals, lead vocal *
Mark Rivers - harmony vocals
Alecia Chakour - harmony vocals, lead vocal #
Kebbi Williams - saxophone
Elizabeth Lea - trombone
Ephraim Owens - trumpet



recorded, edited and mastered
SIRMick
May 2019


shntool output:

    length     expanded size    cdr  WAVE problems  fmt   ratio  filename
     0:48.40        8561324 B   ---   --   ---xx   flac  0.5216  ttb2019-04-27s1t01.flac
     4:29.26       47512796 B   ---   --   ---xx   flac  0.6120  ttb2019-04-27s1t02.flac
     7:18.04       77272652 B   ---   --   ---xx   flac  0.5723  ttb2019-04-27s1t03.flac
     6:48.54       72098252 B   ---   --   ---xx   flac  0.5987  ttb2019-04-27s1t04.flac
     4:12.38       44542220 B   ---   --   ---xx   flac  0.6223  ttb2019-04-27s1t05.flac
     4:37.08       48881660 B   ---   --   ---xx   flac  0.5898  ttb2019-04-27s1t06.flac
     4:26.29       46990652 B   ---   --   ---xx   flac  0.5227  ttb2019-04-27s1t07.flac
     7:21.29       77860652 B   ---   --   ---xx   flac  0.5612  ttb2019-04-27s1t08.flac
    10:57.09      115916012 B   ---   --   ---xx   flac  0.5572  ttb2019-04-27s1t09.flac
     0:34.37        6084668 B   ---   --   ---xx   flac  0.4639  ttb2019-04-27s2t01.flac
     6:25.42       68012828 B   ---   --   ---xx   flac  0.5448  ttb2019-04-27s2t02.flac
     4:37.10       48886364 B   ---   --   ---xx   flac  0.5962  ttb2019-04-27s2t03.flac
     7:35.16       80299676 B   ---   --   ---xx   flac  0.5720  ttb2019-04-27s2t04.flac
     5:39.22       59851388 B   ---   --   ---xx   flac  0.5809  ttb2019-04-27s2t05.flac
     4:54.19       51906332 B   ---   --   ---xx   flac  0.5810  ttb2019-04-27s2t06.flac
     5:28.67       58016828 B   ---   --   ---xx   flac  0.5440  ttb2019-04-27s2t07.flac
     8:38.58       91511660 B   ---   --   ---xx   flac  0.5780  ttb2019-04-27s2t08.flac
     7:02.33       74518460 B   ---   --   ---xx   flac  0.5466  ttb2019-04-27s2t09.flac
     5:34.39       59009372 B   ---   --   ---xx   flac  0.6061  ttb2019-04-27s2t10.flac
     9:44.67      103175228 B   ---   --   ---xx   flac  0.5621  ttb2019-04-27s2t11.flac
     9:08.16       96704876 B   ---   --   ---xx   flac  0.5890  ttb2019-04-27s2t12.flac
     2:21.03       24879500 B   ---   --   ---xx   flac  0.5832  ttb2019-04-27s2t13.flac
    14:56.20      158101484 B   ---   --   ---xx   flac  0.5353  ttb2019-04-27s2t14.flac
   143:40.11     1520594884 B                            0.5690  (23 files)

flac fingerprints:

ttb2019-04-27s1t01.flac:5cf89c6a72347deea185d8a038f5528c
ttb2019-04-27s1t02.flac:b9459eea51080143b2d6319ee2d994bc
ttb2019-04-27s1t03.flac:1227511b4bc043d1bc1b094dd5671fcb
ttb2019-04-27s1t04.flac:f0991c7787b9936482506986ed636d3b
ttb2019-04-27s1t05.flac:f6d7eab538388e2de16aec0e5123c9b7
ttb2019-04-27s1t06.flac:3ca1241d128a311e67705e906594ffc0
ttb2019-04-27s1t07.flac:3b1bb19c25879c7128c08d09d47d68bd
ttb2019-04-27s1t08.flac:c46cec50950178c82ac9dbf1226a55ba
ttb2019-04-27s1t09.flac:7f4740c4d5f549f5be1840f7f02773e1
ttb2019-04-27s2t01.flac:af673e6674cce7a56cadf26c2cf55448
ttb2019-04-27s2t02.flac:23b817e32e657b3f6dc2344c1ddb3778
ttb2019-04-27s2t03.flac:b2468593b2f5a75264a74fa5737026e7
ttb2019-04-27s2t04.flac:efa53d88543f0b9ff6f00a9d948a3850
ttb2019-04-27s2t05.flac:69e46ea5eea8d936f9fb64cb23fabc8f
ttb2019-04-27s2t06.flac:0acf005ad33a706bbf963f8f2e0d84cc
ttb2019-04-27s2t07.flac:00e329f5efcbcaea841c125e306b8d19
ttb2019-04-27s2t08.flac:a6e8c26ac4471a5755a07da498bbec4f
ttb2019-04-27s2t09.flac:1551ab18acb64df377754ea308f4e7c9
ttb2019-04-27s2t10.flac:54949cc5142e66a44038e4a559fe1822
ttb2019-04-27s2t11.flac:6b95f26944bfadf3e367cde74d0cd431
ttb2019-04-27s2t12.flac:7a64bd907a599c7f74b01595afe14a25
ttb2019-04-27s2t13.flac:2643cc8a7a8fff61b1a2556fc78d317f
ttb2019-04-27s2t14.flac:6ff58ed28d669a511ffae71304655007

md5
e6a80aa43c22368f9907954cb506515b *ttb2019-04-27s1t01.flac
2f0b552b1ae6fc0def1762c0824b800f *ttb2019-04-27s1t02.flac
72cc9b9496adbda921fba6a775a587a5 *ttb2019-04-27s1t03.flac
4f4bcc8deee47c7af96068b909773e09 *ttb2019-04-27s1t04.flac
54434fd865b2fa283e02c1f42cad5552 *ttb2019-04-27s1t05.flac
485f315f22fe61d234af16cb513b0a6b *ttb2019-04-27s1t06.flac
14dd2b9c8049e35dc5d8b692820ca8ba *ttb2019-04-27s1t07.flac
44ad1277eb0fc50cad552cfcdb3f2c66 *ttb2019-04-27s1t08.flac
78f369b2713607eaf7749828d918e857 *ttb2019-04-27s1t09.flac
12ddf016243ef834176d3810bececc4b *ttb2019-04-27s2t01.flac
7b6f3d34d855f02c0338516555acca53 *ttb2019-04-27s2t02.flac
a4e050da4ae7cf0e3a3b0fe23921b6c0 *ttb2019-04-27s2t03.flac
112fe82b58be5d78fe745b013815d9ae *ttb2019-04-27s2t04.flac
e07a11dd0479306e56d10dc91e1b3701 *ttb2019-04-27s2t05.flac
aae428a925be82dfa810765e40b1e516 *ttb2019-04-27s2t06.flac
8db6660f2340e9b38061db28636a6de4 *ttb2019-04-27s2t07.flac
193023bd40cf047a57686eb76b878e26 *ttb2019-04-27s2t08.flac
2b3be2da035c47c56d83f4780898b896 *ttb2019-04-27s2t09.flac
08da692a9a8459135b8da67ff9cbaeab *ttb2019-04-27s2t10.flac
e81493c8a45da41b72cf4af44f6ed4dc *ttb2019-04-27s2t11.flac
2a57775a3aa138c6252decbf14f844fe *ttb2019-04-27s2t12.flac
9f4dc88aaf300632b4cb3372e580af93 *ttb2019-04-27s2t13.flac
98800d5cac422261c17590f453b95843 *ttb2019-04-27s2t14.flac
ffp
ttb2019-04-27s1t01.flac:5cf89c6a72347deea185d8a038f5528c
ttb2019-04-27s1t02.flac:b9459eea51080143b2d6319ee2d994bc
ttb2019-04-27s1t03.flac:1227511b4bc043d1bc1b094dd5671fcb
ttb2019-04-27s1t04.flac:f0991c7787b9936482506986ed636d3b
ttb2019-04-27s1t05.flac:f6d7eab538388e2de16aec0e5123c9b7
ttb2019-04-27s1t06.flac:3ca1241d128a311e67705e906594ffc0
ttb2019-04-27s1t07.flac:3b1bb19c25879c7128c08d09d47d68bd
ttb2019-04-27s1t08.flac:c46cec50950178c82ac9dbf1226a55ba
ttb2019-04-27s1t09.flac:7f4740c4d5f549f5be1840f7f02773e1
ttb2019-04-27s2t01.flac:af673e6674cce7a56cadf26c2cf55448
ttb2019-04-27s2t02.flac:23b817e32e657b3f6dc2344c1ddb3778
ttb2019-04-27s2t03.flac:b2468593b2f5a75264a74fa5737026e7
ttb2019-04-27s2t04.flac:efa53d88543f0b9ff6f00a9d948a3850
ttb2019-04-27s2t05.flac:69e46ea5eea8d936f9fb64cb23fabc8f
ttb2019-04-27s2t06.flac:0acf005ad33a706bbf963f8f2e0d84cc
ttb2019-04-27s2t07.flac:00e329f5efcbcaea841c125e306b8d19
ttb2019-04-27s2t08.flac:a6e8c26ac4471a5755a07da498bbec4f
ttb2019-04-27s2t09.flac:1551ab18acb64df377754ea308f4e7c9
ttb2019-04-27s2t10.flac:54949cc5142e66a44038e4a559fe1822
ttb2019-04-27s2t11.flac:6b95f26944bfadf3e367cde74d0cd431
ttb2019-04-27s2t12.flac:7a64bd907a599c7f74b01595afe14a25
ttb2019-04-27s2t13.flac:2643cc8a7a8fff61b1a2556fc78d317f
ttb2019-04-27s2t14.flac:6ff58ed28d669a511ffae71304655007

Comments
Other Sources (comments)
flac24 Roland R-07 > wav... (0)
Date User Comment
etreedb.org
For administrative requests email contact@etreedb.org
This website written by Tom H Anderson and maintained by the etreedb.org community.

Cached: Mon, 30 Nov 2020 18:47:58 EST