Tedeschi Trucks Band 04/27/19
London Palladium, London, England
Source # 146224
Entered by ziko
Checksums md5 , ffp
Disc Counts 0 / 0
Media Size Compressed: 2.91 GB (3127599104 bytes)
Uncompressed: 4.62 GB (4965205492 bytes)
Date Circulated
Date Added
05/02/2019
05/02/2019
Source Summary
flac24 Roland R-07 > wav 24/96 Lineage: Wav 24/96 > iZotope RX7 Advanced >iZotope Neutron 2 > CD Wave > Flac 24 recorded, edited and mastered SIRMick May 2019
Tedeschi Trucks Band
London Palladium,
London, England
04/27/2019


Source: AT833b's > Roland R-07 > wav 24/96
Lineage: Wav 24/96 > iZotope RX7 Advanced >iZotope Neutron 2 > CD Wave > Flac 24


Set I

01   crowd
02   Signs, High Times
03   Don't Drift Away
04   Don't Know What It Means >
05   The Letter
06   Part Of Me
07   It's So Heavy
08   Key To The Highway *
09   I Want More


Set II

01   crowd
02   Idle Wind >
03   Rastaman Chant >
04   Idle Wind
05   Walk Through This Life
06   High And Mighty
07   Bird On The Wire
08   Space Captain
09   I Pity The Fool
10   Get What You Deserve *
11   Dreams >
12   The Storm
13   ~~encore break~~

encore

14   Bound for Glory #




Derek Trucks - guitar
Susan Tedeschi - guitar, vocals
Tyler Greenwell - drums, percussion
J.J. Johnson - drums, percussion
Brandon Boone - bass
Gabe Dixon - keyboards
Mike Mattison - harmony vocals, lead vocal *
Mark Rivers - harmony vocals
Alecia Chakour - harmony vocals, lead vocal #
Kebbi Williams - saxophone
Elizabeth Lea - trombone
Ephraim Owens - trumpet



recorded, edited and mastered
SIRMick
May 2019


shntool output:

    length     expanded size    cdr  WAVE problems  fmt   ratio  filename
     0:48.533      27955244 B   cxx   --   ---xx   flac  0.6136  ttb2019-04-27s1t01.flac
     4:29.347     155143724 B   cxx   --   ---xx   flac  0.6450  ttb2019-04-27s1t02.flac
     7:18.053     252318764 B   cxx   --   ---xx   flac  0.6293  ttb2019-04-27s1t03.flac
     6:48.720     235422764 B   cxx   --   ---xx   flac  0.6395  ttb2019-04-27s1t04.flac
     4:12.507     145443884 B   cxx   --   ---xx   flac  0.6487  ttb2019-04-27s1t05.flac
     4:37.107     159613484 B   cxx   --   ---xx   flac  0.6362  ttb2019-04-27s1t06.flac
     4:26.387     153438764 B   cxx   --   ---xx   flac  0.6114  ttb2019-04-27s1t07.flac
     7:21.387     254238764 B   cxx   --   ---xx   flac  0.6259  ttb2019-04-27s1t08.flac
    10:57.120     378501164 B   cxx   --   ---xx   flac  0.6262  ttb2019-04-27s1t09.flac
     0:34.493      19868204 B   cxx   --   ---xx   flac  0.5989  ttb2019-04-27s2t01.flac
     6:25.560     222082604 B   cxx   --   ---xx   flac  0.6264  ttb2019-04-27s2t02.flac
     4:37.133     159628844 B   cxx   --   ---xx   flac  0.6453  ttb2019-04-27s2t03.flac
     7:35.213     262202924 B   cxx   --   ---xx   flac  0.6388  ttb2019-04-27s2t04.flac
     5:39.293     195433004 B   cxx   --   ---xx   flac  0.6351  ttb2019-04-27s2t05.flac
     4:54.253     169489964 B   cxx   --   ---xx   flac  0.6347  ttb2019-04-27s2t06.flac
     5:28.893     189442604 B   cxx   --   ---xx   flac  0.6218  ttb2019-04-27s2t07.flac
     8:38.773     298813484 B   cxx   --   ---xx   flac  0.6276  ttb2019-04-27s2t08.flac
     7:02.440     243325484 B   cxx   --   ---xx   flac  0.6189  ttb2019-04-27s2t09.flac
     5:34.520     192683564 B   cxx   --   ---xx   flac  0.6432  ttb2019-04-27s2t10.flac
     9:44.893     336898604 B   cxx   --   ---xx   flac  0.6260  ttb2019-04-27s2t11.flac
     9:08.213     315770924 B   cxx   --   ---xx   flac  0.6374  ttb2019-04-27s2t12.flac
     2:21.040      81239084 B   cxx   --   ---xx   flac  0.6366  ttb2019-04-27s2t13.flac
    14:56.267     516249644 B   cxx   --   ---xx   flac  0.6163  ttb2019-04-27s2t14.flac
   143:40.147    4965205492 B                            0.6299  (23 files)

flac fingerprints:

ttb2019-04-27s1t01.flac:40ed49f45e539ca834a6f398cc957f61
ttb2019-04-27s1t02.flac:4855a01ee7d605f7cc92ef17c84dae79
ttb2019-04-27s1t03.flac:05ff0030a9f6014f989a8ae5b980df08
ttb2019-04-27s1t04.flac:f783acd7c4b2a655ddefa72069ef5a4a
ttb2019-04-27s1t05.flac:355882f9d20f6847c7ea2e3eef8f2f33
ttb2019-04-27s1t06.flac:a4a4d4249797925a145dcd220ebc7442
ttb2019-04-27s1t07.flac:0441ea2460cf4ac437689c2dc7eaaadd
ttb2019-04-27s1t08.flac:47170e43db3ef062b58e95db7d2c7628
ttb2019-04-27s1t09.flac:ced8897b1c969688caa0d781002b06bd
ttb2019-04-27s2t01.flac:3494a26a30af2b946fe41edac01c0416
ttb2019-04-27s2t02.flac:e397f3918e3826ceae88d90c29a01255
ttb2019-04-27s2t03.flac:d0e5ab83e2d3bd0f49fdbb4715cd1737
ttb2019-04-27s2t04.flac:3bcb545194820b02df53c29d99c293a8
ttb2019-04-27s2t05.flac:f59adbd49ddb9357d80293df9ff4b5d8
ttb2019-04-27s2t06.flac:b47129c133a4f4b9079ca7767cfbbad2
ttb2019-04-27s2t07.flac:59d57c897daffca74ab0e31bd2e649b3
ttb2019-04-27s2t08.flac:b8f23f51212663256295da4a98a2f22c
ttb2019-04-27s2t09.flac:7700a2627b568a70307f3298d082a308
ttb2019-04-27s2t10.flac:9b6debc4f80bccd11bcbf74338f182df
ttb2019-04-27s2t11.flac:813fef2178348cd49ae184f99d5a25f2
ttb2019-04-27s2t12.flac:041d91b3caef05271333768b39e077a2
ttb2019-04-27s2t13.flac:74c53ca2d4ef4956a25647ff1a5ca481
ttb2019-04-27s2t14.flac:d6298f3a28d0885d214928acdd60418b

md5
9301497f0032fade5508375695fe0645 *ttb2019-04-27s1t01.flac
ee64d96ec48b1229b3a3178fc84582ec *ttb2019-04-27s1t02.flac
12253a9f258c30addb870b81f9f3e931 *ttb2019-04-27s1t03.flac
9b8a1f4f616d1a37664751c7ddc91cfd *ttb2019-04-27s1t04.flac
de250fb3d97d00510346e32dbedcb0ba *ttb2019-04-27s1t05.flac
1b2e79a15683a57ef7dfb319b9b9867a *ttb2019-04-27s1t06.flac
e875adee0e8f17c7336e9086ddf20507 *ttb2019-04-27s1t07.flac
c8dc990ef47170dcaf77cf33ff705ec9 *ttb2019-04-27s1t08.flac
a3cdb4668f891bf595e45605a9121639 *ttb2019-04-27s1t09.flac
c604f16e8d36a4b2fab67f755d89b75a *ttb2019-04-27s2t01.flac
c72f95ba4fa6a0e4f93ec5db10746cff *ttb2019-04-27s2t02.flac
7ec05d58c3724c58ddd32fc96125602c *ttb2019-04-27s2t03.flac
a6cf653eee046d16df77e14f793b216b *ttb2019-04-27s2t04.flac
5613eb391574403de1814a2df918c677 *ttb2019-04-27s2t05.flac
1f8eb6395eb8c7c9f6c0eafcf22e17a2 *ttb2019-04-27s2t06.flac
2d83d817e98934a5ee53de42a8a4ed08 *ttb2019-04-27s2t07.flac
32c87238ae910f194d9af2c90d2e8632 *ttb2019-04-27s2t08.flac
9e0fe929faa121bb800a9b812d7e4a90 *ttb2019-04-27s2t09.flac
ee2bbed06612ae7c830088790ddfddf4 *ttb2019-04-27s2t10.flac
7145547060443d833523ad0d83ab6eab *ttb2019-04-27s2t11.flac
cbc4db0037f33194c3dab97740c9fe86 *ttb2019-04-27s2t12.flac
76c41c7d055c5df055a975516d423b42 *ttb2019-04-27s2t13.flac
cf6d9f3f1bfc6c71b78dd0158342bd82 *ttb2019-04-27s2t14.flac
ffp
ttb2019-04-27s1t01.flac:40ed49f45e539ca834a6f398cc957f61
ttb2019-04-27s1t02.flac:4855a01ee7d605f7cc92ef17c84dae79
ttb2019-04-27s1t03.flac:05ff0030a9f6014f989a8ae5b980df08
ttb2019-04-27s1t04.flac:f783acd7c4b2a655ddefa72069ef5a4a
ttb2019-04-27s1t05.flac:355882f9d20f6847c7ea2e3eef8f2f33
ttb2019-04-27s1t06.flac:a4a4d4249797925a145dcd220ebc7442
ttb2019-04-27s1t07.flac:0441ea2460cf4ac437689c2dc7eaaadd
ttb2019-04-27s1t08.flac:47170e43db3ef062b58e95db7d2c7628
ttb2019-04-27s1t09.flac:ced8897b1c969688caa0d781002b06bd
ttb2019-04-27s2t01.flac:3494a26a30af2b946fe41edac01c0416
ttb2019-04-27s2t02.flac:e397f3918e3826ceae88d90c29a01255
ttb2019-04-27s2t03.flac:d0e5ab83e2d3bd0f49fdbb4715cd1737
ttb2019-04-27s2t04.flac:3bcb545194820b02df53c29d99c293a8
ttb2019-04-27s2t05.flac:f59adbd49ddb9357d80293df9ff4b5d8
ttb2019-04-27s2t06.flac:b47129c133a4f4b9079ca7767cfbbad2
ttb2019-04-27s2t07.flac:59d57c897daffca74ab0e31bd2e649b3
ttb2019-04-27s2t08.flac:b8f23f51212663256295da4a98a2f22c
ttb2019-04-27s2t09.flac:7700a2627b568a70307f3298d082a308
ttb2019-04-27s2t10.flac:9b6debc4f80bccd11bcbf74338f182df
ttb2019-04-27s2t11.flac:813fef2178348cd49ae184f99d5a25f2
ttb2019-04-27s2t12.flac:041d91b3caef05271333768b39e077a2
ttb2019-04-27s2t13.flac:74c53ca2d4ef4956a25647ff1a5ca481
ttb2019-04-27s2t14.flac:d6298f3a28d0885d214928acdd60418b

Comments
Other Sources (comments)
Source: AT833b's > Roland... (0)
Date User Comment
etreedb.org
For administrative requests email contact@etreedb.org
This website written by Tom H Anderson and maintained by the etreedb.org community.

Cached: Tue, 24 Nov 2020 21:40:12 EST