Johnny Vidacovich Trio 04/29/19
D.B.A., New Orleans, LA
Source # 146491
Entered by Mike
Checksums jvt2019-04-29.ffp
Disc Counts 0 / 0
Media Size Compressed: 1.3 GB (1394759918 bytes)
Date Circulated
Date Added
05/??/2019
05/24/2019
Download Text | Download Zip
Other Sources
Source Summary
Flac2448
Source: AT 4050st (stage)+sbd(mono)>busDR70r 24/48
Transfer: SD>Picklemacmini> Audacity 2.0.1> Xact 2.37 > FLAC
Johnny Vidacovich Trio(John Medeski & Eric Benny Bloom)
JazzFest 50
April 29th, 2019
D.B.A.
NOLA


Source: AT 4050st (stage)+sbd(mono)>busDR70r 24/48
Transfer: SD>Picklemacmini> Audacity 2.0.1> Xact 2.37 > FLAC
Recorded and transferred: Jason "Picklemic" Loomis picklemic 2@ gmail

Set 1
01. Improv>Beatrice
02. Improv>Come Together
03. Lonesome Ave.
04. banter
05. Improv>Natures Rock & Roll

Set 2
01. Improv
02. Improv
03. Lively Up Yourself> Bemsha Swing
04. banter
05. Improv
06. I'm Walking

    length     expanded size    cdr  WAVE problems  fmt   ratio  filename
    19:05.037     329770616 B   cxx   --   ---xx   flac  0.6555  jvt2019-04-29s1t01.flac
    17:44.622     306611162 B   cxx   --   ---xx   flac  0.6750  jvt2019-04-29s1t02.flac
     9:51.457     170339552 B   cxx   --   ---xx   flac  0.6742  jvt2019-04-29s1t03.flac
     3:51.047      66541538 B   cxx   --   ---xx   flac  0.5837  jvt2019-04-29s1t04.flac
    17:22.770     300317828 B   cxx   --   ---xx   flac  0.6307  jvt2019-04-29s1t05.flac
    12:30.872     216251258 B   cxx   --   ---xx   flac  0.6457  jvt2019-04-29s2t01.flac
    12:25.987     214844246 B   cxx   --   ---xx   flac  0.6685  jvt2019-04-29s2t02.flac
     8:33.570     147908120 B   cxx   --   ---xx   flac  0.6651  jvt2019-04-29s2t03.flac
     2:12.742      38229650 B   cxx   --   ---xx   flac  0.6083  jvt2019-04-29s2t04.flac
    11:33.736     199796054 B   cxx   --   ---xx   flac  0.6580  jvt2019-04-29s2t05.flac
     7:44.238     133700708 B   cxx   --   ---xx   flac  0.6893  jvt2019-04-29s2t06.flac
   122:56.077    2124310732 B                            0.6566  (11 files)

jvt2019-04-29s1t01.flac:a4db17c38323bf2a193702c2cb64348e
jvt2019-04-29s1t02.flac:f2816799a64f5051d28bc37a1f2324dd
jvt2019-04-29s1t03.flac:97060bdd69c1c73ade433b278a5361aa
jvt2019-04-29s1t04.flac:18e26f3b6c9bcc118038ec8ebb4d2b5e
jvt2019-04-29s1t05.flac:d27f14f8079a8efbc54dedc19facb586
jvt2019-04-29s2t01.flac:eab579fc3e3daac8e05765dd5ae0b104
jvt2019-04-29s2t02.flac:33e5ea8e8d266ed19239361f75854ae3
jvt2019-04-29s2t03.flac:aeb083c2b56517f6ac826de65b6c8622
jvt2019-04-29s2t04.flac:cd50a8729c256495f7aa44480763c61a
jvt2019-04-29s2t05.flac:c29cb134ac980e866f160b4a876c272d
jvt2019-04-29s2t06.flac:fa3b09ab74cf3358648345ae8e025483

Comments
Date User Comment
etreedb.org
For administrative requests email contact@etreedb.org
This website written by Tom H Anderson and maintained by the etreedb.org community.

Cached: Sat, 20 Apr 2024 04:09:07 EDT