Grateful Dead 04/08/78
Veterans Memorial Coliseum, Jacksonville, FL
Source Summary
flac16/48kHz; Recording Info:Kathy Sublette's Master Audience Cassettes; Shure SM57 mics > Sony-TC158; Transfer Info: Cassette Master (Nakamichi DR-1)> Tascam DA-3000 (DSF 1-bit/5.6 MHz)> dBpoweramp > Adobe Audition CC 2019 > TLH flac2496; 24-bit > 16-bit via dBpoweramp
Grateful Dead
Veterans Memorial Coliseum
Jacksonville, FL
Saturday  April 8th, 1978

This is a 16/48 fileset. 24-bit > 16-bit via dBpoweramp

Recording Info:
Kathy Sublette's Master Audience Cassettes; Shure SM57 mics > Sony-TC158

Transfer Info:
Cassette Master (Nakamichi DR-1)> Tascam DA-3000 (DSF 1-bit/5.6 MHz)> dBpoweramp > Adobe Audition CC 2019 > TLH flac2496

Notes:
- Thanks to Kathy Sublette for the Master Audience Cassettes
- Thanks to Ted Mattes for finding the master cassettes
- Thanks to Charlie Miller for the transfer and coordinating this effort
- Some funkiness at the beginning of "Samson & Delilah"
- Pitch corrected
- First audience source in general circulation for this date

Mastered by Scott Clugston
September 2019

Set One:
s1t01 - Crowd
s1t02 - Mississippi Half-Step Uptown Toodeloo
s1t03 - Me & My Uncle >
s1t04 - Big River
s1t05 - They Love Each Other
s1t06 - Looks Like Rain
s1t07 - Deal
s1t08 - El Paso
s1t09 - It Must Have Been The Roses
s1t10 - Lazy Lightnin' >
s1t11 - Supplication

Set Two:
s2t01 - Crowd
s2t02 - Samson & Delilah
s2t03 - Scarlet Begonias >
s2t04 - Fire On The Mountain
s2t05 - Estimated Prophet >
s2t06 - Eyes Of The World >
s2t07 - Drums >
s2t08 - Space >
s2t09 - Sugar Magnolia
s2t10 - Encore Break
s2t11 - One More Saturday Night

    length     expanded size    cdr  WAVE problems  fmt   ratio  filename
     1:33.240      17902124 B   cxx   --   ---xx   flac  0.6477  gd78-04-08 s1t01 Crowd.flac
    12:58.333     149440044 B   cxx   --   ---xx   flac  0.6777  gd78-04-08 s1t02 Mississippi Half-Step.flac
     3:02.640      35066924 B   cxx   --   ---xx   flac  0.6920  gd78-04-08 s1t03 Me & My Uncle.flac
     9:01.040     103879724 B   cxx   --   ---xx   flac  0.6729  gd78-04-08 s1t04 Big River.flac
     7:38.693      88069164 B   cxx   --   ---xx   flac  0.6699  gd78-04-08 s1t05 They Love Each Other.flac
     9:07.307     105082924 B   cxx   --   ---xx   flac  0.6622  gd78-04-08 s1t06 Looks Like Rain.flac
     7:48.253      89904684 B   cxx   --   ---xx   flac  0.6615  gd78-04-08 s1t07 Deal.flac
     5:59.880      69097004 B   cxx   --   ---xx   flac  0.6488  gd78-04-08 s1t08 El Paso.flac
     8:47.507     101281324 B   cxx   --   ---xx   flac  0.6443  gd78-04-08 s1t09 It Must Have Been The Roses.flac
     3:45.773      43348524 B   cxx   --   ---xx   flac  0.6857  gd78-04-08 s1t10 Lazy Lightning.flac
     5:23.333      62080044 B   cxx   --   ---xx   flac  0.6790  gd78-04-08 s1t11 Supplication.flac
     0:55.587      10672684 B   cxx   --   ---xx   flac  0.6462  gd78-04-08 s2t01 Crowd.flac
     7:46.107      89492524 B   cxx   --   ---xx   flac  0.6798  gd78-04-08 s2t02 Samson & Delilah.flac
    11:39.160     134238764 B   cxx   --   ---xx   flac  0.6658  gd78-04-08 s2t03 Scarlet Begonias.flac
    14:26.680     166402604 B   cxx   --   ---xx   flac  0.6590  gd78-04-08 s2t04 Fire On The Mountain.flac
    11:45.880     135529004 B   cxx   --   ---xx   flac  0.6661  gd78-04-08 s2t05 Estimated Prophet.flac
    11:56.067     137484844 B   cxx   --   ---xx   flac  0.6734  gd78-04-08 s2t06 Eyes Of The World.flac
    14:49.707     170823724 B   cxx   --   ---xx   flac  0.6627  gd78-04-08 s2t07 Drums.flac
     6:04.200      69926444 B   cxx   --   ---xx   flac  0.6599  gd78-04-08 s2t08 Space.flac
    10:40.133     122905644 B   cxx   --   ---xx   flac  0.6892  gd78-04-08 s2t09 Sugar Magnolia.flac
     1:22.080      15759404 B   cxx   --   ---xx   flac  0.6441  gd78-04-08 s2t10 Encore Break.flac
     5:07.475      59035172 B   cxx   --   ---xx   flac  0.6907  gd78-04-08 s2t11 One More Saturday Night.flac
   171:39.075    1977423296 B                            0.6684  (22 files)


ffp
gd78-04-08 s1t01 Crowd.flac:123be3bf0e13e9c013286afe3b6e2d7c
gd78-04-08 s1t02 Mississippi Half-Step.flac:3389d00ee274b20531f4017a2a830434
gd78-04-08 s1t03 Me & My Uncle.flac:323b58e49b3eac26f71d70d08b80b22c
gd78-04-08 s1t04 Big River.flac:404a8e463468c6b0f966a9d68fe3030f
gd78-04-08 s1t05 They Love Each Other.flac:c8eae4529ab2f9440cdcc5694e3b2279
gd78-04-08 s1t06 Looks Like Rain.flac:6121d217b909c0d4c62eaedcc1ce3be2
gd78-04-08 s1t07 Deal.flac:c2cb3050b92e4e5dd5b1a35ff5b4794c
gd78-04-08 s1t08 El Paso.flac:8bf3887fbe7726c9940078904384f9e1
gd78-04-08 s1t09 It Must Have Been The Roses.flac:3805bae54900f9ea7ddb8c84227ea234
gd78-04-08 s1t10 Lazy Lightning.flac:691d660b0fbb8892073193454d64be81
gd78-04-08 s1t11 Supplication.flac:761f28b06acdc327dcd64c30d12f8a93
gd78-04-08 s2t01 Crowd.flac:3084f4f3441cbcb9b3248b20e44ef669
gd78-04-08 s2t02 Samson & Delilah.flac:2a85e67b49d613cae2e8b62b65c43ffb
gd78-04-08 s2t03 Scarlet Begonias.flac:0656d17f190357cf0772f859df6c868d
gd78-04-08 s2t04 Fire On The Mountain.flac:7d66740126abab942d8cdbaf81ec7244
gd78-04-08 s2t05 Estimated Prophet.flac:d987809a0cf5cc66e41169062708d869
gd78-04-08 s2t06 Eyes Of The World.flac:a775496407e8a3f168af6be93b5d500b
gd78-04-08 s2t07 Drums.flac:e0129245cbbe36646809993036a6e6a7
gd78-04-08 s2t08 Space.flac:59df9451e68d3f977349ead9c373bced
gd78-04-08 s2t09 Sugar Magnolia.flac:ff41b205c0230ae2550917a8f8d03a19
gd78-04-08 s2t10 Encore Break.flac:ed4272d4f798fd837d04b3068bcff316
gd78-04-08 s2t11 One More Saturday Night.flac:a2391e98ee82ef91060d03020e3fc581
63b3e5085209462cd0cf78997760c7a6 *gd78-04-08 s1t01 Crowd.flac
acf2fa2c4dd86b0fdc5a1e7cbe8c8808 *gd78-04-08 s1t02 Mississippi Half-Step.flac
b6769402054c3be569c1b9fa8296319c *gd78-04-08 s1t03 Me & My Uncle.flac
1eb46380bd8442f81c31a82a53455241 *gd78-04-08 s1t04 Big River.flac
c417b87cad5adf23342491c6632a573d *gd78-04-08 s1t05 They Love Each Other.flac
7c21f0ff63a6284ec6ad6254bcf9f1a7 *gd78-04-08 s1t06 Looks Like Rain.flac
931f5b6b8c3cc52dfb67bae9b68af646 *gd78-04-08 s1t07 Deal.flac
d1bba05d0878df963444724138c5efbd *gd78-04-08 s1t08 El Paso.flac
8e750b549b9b2ddf76c1723fc9b4008b *gd78-04-08 s1t09 It Must Have Been The Roses.flac
9f3e4f37e0fe04201994cfdf7815241c *gd78-04-08 s1t10 Lazy Lightning.flac
7230b025827e18ee021767b5b88f3d33 *gd78-04-08 s1t11 Supplication.flac
2bca67350056d289b16b57416f5882ae *gd78-04-08 s2t01 Crowd.flac
74708fbdfa451cce1443476ac2cdc0f3 *gd78-04-08 s2t02 Samson & Delilah.flac
b38762dbb38c641121cdb4f48e3fa8ed *gd78-04-08 s2t03 Scarlet Begonias.flac
27270537bacad282fd16cce3292f8f95 *gd78-04-08 s2t04 Fire On The Mountain.flac
724a61ed369b1b15d28d49403dd543ea *gd78-04-08 s2t05 Estimated Prophet.flac
75e428275832b9c73d8cd6c21ff3942e *gd78-04-08 s2t06 Eyes Of The World.flac
1f4b1e84f2788fbeffe37c011e79d508 *gd78-04-08 s2t07 Drums.flac
34bb26281e494242a3bb72eac13fff44 *gd78-04-08 s2t08 Space.flac
86a50cafe0786a7728de058786c6cd54 *gd78-04-08 s2t09 Sugar Magnolia.flac
75d2554ff6883463ff691bceb1c9f292 *gd78-04-08 s2t10 Encore Break.flac
8a3c585b7da7de83a05d2dbd7734d65a *gd78-04-08 s2t11 One More Saturday Night.flac

Comments
etreedb.org
For administrative requests email contact@etreedb.org
This website written by Tom H Anderson and maintained by the etreedb.org community.

Cached: Tue, 24 Nov 2020 15:57:41 EST