Grateful Dead 04/08/78
Veterans Memorial Coliseum, Jacksonville, FL
Source Summary
flac24; Recording Info: Kathy Sublette's Master Audience Cassettes; Shure SM57 mics > Sony-TC158; Transfer Info: Cassette Master (Nakamichi DR-1)> Tascam DA-3000 (DSF 1-bit/5.6 MHz)> dBpoweramp > Adobe Audition CC 2019 > TLH flac2496
Grateful Dead
Veterans Memorial Coliseum
Jacksonville, FL
Saturday  April 8th, 1978

Recording Info:
Kathy Sublette's Master Audience Cassettes; Shure SM57 mics > Sony-TC158

Transfer Info:
Cassette Master (Nakamichi DR-1)> Tascam DA-3000 (DSF 1-bit/5.6 MHz)> dBpoweramp > Adobe Audition CC 2019 > TLH flac2496

Notes:
- Thanks to Kathy Sublette for the Master Audience Cassettes
- Thanks to Ted Mattes for finding the master cassettes
- Thanks to Charlie Miller for the transfer and coordinating this effort
- Some funkiness at the beginning of "Samson & Delilah"
- Pitch corrected
- First audience source in general circulation for this date

Mastered by Scott Clugston
September 2019

Set One:
s1t01 - Crowd
s1t02 - Mississippi Half-Step Uptown Toodeloo
s1t03 - Me & My Uncle >
s1t04 - Big River
s1t05 - They Love Each Other
s1t06 - Looks Like Rain
s1t07 - Deal
s1t08 - El Paso
s1t09 - It Must Have Been The Roses
s1t10 - Lazy Lightnin' >
s1t11 - Supplication

Set Two:
s2t01 - Crowd
s2t02 - Samson & Delilah
s2t03 - Scarlet Begonias >
s2t04 - Fire On The Mountain
s2t05 - Estimated Prophet >
s2t06 - Eyes Of The World >
s2t07 - Drums >
s2t08 - Space >
s2t09 - Sugar Magnolia
s2t10 - Encore Break
s2t11 - One More Saturday Night

    length     expanded size    cdr  WAVE problems  fmt   ratio  filename
     1:33.240      53706284 B   cxx   --   ---xx   flac  0.6877  gd78-04-08 s1t01 Crowd.flac
    12:58.333     448320044 B   cxx   --   ---xx   flac  0.7023  gd78-04-08 s1t02 Mississippi Half-Step.flac
     3:02.640     105200684 B   cxx   --   ---xx   flac  0.7078  gd78-04-08 s1t03 Me & My Uncle.flac
     9:01.040     311639084 B   cxx   --   ---xx   flac  0.7005  gd78-04-08 s1t04 Big River.flac
     7:38.693     264207404 B   cxx   --   ---xx   flac  0.6992  gd78-04-08 s1t05 They Love Each Other.flac
     9:07.307     315248684 B   cxx   --   ---xx   flac  0.6963  gd78-04-08 s1t06 Looks Like Rain.flac
     7:48.253     269713964 B   cxx   --   ---xx   flac  0.6937  gd78-04-08 s1t07 Deal.flac
     5:59.880     207290924 B   cxx   --   ---xx   flac  0.6888  gd78-04-08 s1t08 El Paso.flac
     8:47.507     303843884 B   cxx   --   ---xx   flac  0.6882  gd78-04-08 s1t09 It Must Have Been The Roses.flac
     3:45.773     130045484 B   cxx   --   ---xx   flac  0.7088  gd78-04-08 s1t10 Lazy Lightning.flac
     5:23.333     186240044 B   cxx   --   ---xx   flac  0.7064  gd78-04-08 s1t11 Supplication.flac
     0:55.587      32017964 B   cxx   --   ---xx   flac  0.6932  gd78-04-08 s2t01 Crowd.flac
     7:46.107     268477484 B   cxx   --   ---xx   flac  0.7045  gd78-04-08 s2t02 Samson & Delilah.flac
    11:39.160     402716204 B   cxx   --   ---xx   flac  0.6954  gd78-04-08 s2t03 Scarlet Begonias.flac
    14:26.680     499207724 B   cxx   --   ---xx   flac  0.6948  gd78-04-08 s2t04 Fire On The Mountain.flac
    11:45.880     406586924 B   cxx   --   ---xx   flac  0.7014  gd78-04-08 s2t05 Estimated Prophet.flac
    11:56.067     412454444 B   cxx   --   ---xx   flac  0.7036  gd78-04-08 s2t06 Eyes Of The World.flac
    14:49.707     512471084 B   cxx   --   ---xx   flac  0.6986  gd78-04-08 s2t07 Drums.flac
     6:04.200     209779244 B   cxx   --   ---xx   flac  0.6981  gd78-04-08 s2t08 Space.flac
    10:40.133     368716844 B   cxx   --   ---xx   flac  0.7088  gd78-04-08 s2t09 Sugar Magnolia.flac
     1:22.080      47278124 B   cxx   --   ---xx   flac  0.6919  gd78-04-08 s2t10 Encore Break.flac
     5:07.475     177105428 B   cxx   --   ---xx   flac  0.7099  gd78-04-08 s2t11 One More Saturday Night.flac
   171:39.075    5932267952 B                            0.6994  (22 files)


ffp
gd78-04-08 s1t01 Crowd.flac:18fb8bc5b4db3839343c4878cb47d496
gd78-04-08 s1t02 Mississippi Half-Step.flac:6c6c295359ab92c1c4e84cd15506d113
gd78-04-08 s1t03 Me & My Uncle.flac:78af82bbce06d795b00c4f2222b1f9c6
gd78-04-08 s1t04 Big River.flac:4b28e4b3b71d56220d46792e73b4fb8d
gd78-04-08 s1t05 They Love Each Other.flac:96967b4f1ea5c8180ef5b9c35ca49915
gd78-04-08 s1t06 Looks Like Rain.flac:56164f7db8f200b76998b625e4b9fc2a
gd78-04-08 s1t07 Deal.flac:320dcc078890f9c85df54b3595be95e4
gd78-04-08 s1t08 El Paso.flac:7ec2e8aecc7da7269471a87374b1e717
gd78-04-08 s1t09 It Must Have Been The Roses.flac:3b29b7fa1382595f267557938a19dd87
gd78-04-08 s1t10 Lazy Lightning.flac:e6b35e8d6f89e5912f631fe5737cde57
gd78-04-08 s1t11 Supplication.flac:a6b07d639438aa1b6b6e5357bbedebc4
gd78-04-08 s2t01 Crowd.flac:a79f227940fa19de508faa058817848e
gd78-04-08 s2t02 Samson & Delilah.flac:904ba1a8f8d7435e4b270ceac307763b
gd78-04-08 s2t03 Scarlet Begonias.flac:290267c72406fbf3f5925606b2593d42
gd78-04-08 s2t04 Fire On The Mountain.flac:b5c32f29c7d8750e96230f4c439c3b34
gd78-04-08 s2t05 Estimated Prophet.flac:f68db6f187ed8a292d051d5ef5cd740e
gd78-04-08 s2t06 Eyes Of The World.flac:1b2352e3a39584db2dac7eaf8982692b
gd78-04-08 s2t07 Drums.flac:8cde895b11143523c402ac1afb7e72dd
gd78-04-08 s2t08 Space.flac:dc8e3a615635f22302742616ca1b2ede
gd78-04-08 s2t09 Sugar Magnolia.flac:a8dd60af8bdde19999558133a5896aad
gd78-04-08 s2t10 Encore Break.flac:4ba9c5b4f82213856fc6036948c6a436
gd78-04-08 s2t11 One More Saturday Night.flac:840bb0abe418f007c2e92c4687e7be04
9c4118c6a4383f3647c1c6084ef7aecd *gd78-04-08 s1t01 Crowd.flac
65d4e34418851823dedf1e9c5000b00d *gd78-04-08 s1t02 Mississippi Half-Step.flac
d8653426d03cea0913ec8f2ab8fff4c5 *gd78-04-08 s1t03 Me & My Uncle.flac
8e7fc866f145cc8892a7db0dc4d35eda *gd78-04-08 s1t04 Big River.flac
d06595a21befd15eb3e9edd3c7b82a55 *gd78-04-08 s1t05 They Love Each Other.flac
037a3309d3f7aff4d1eaa82666dbc07d *gd78-04-08 s1t06 Looks Like Rain.flac
afbbef456e25c3ec18c2a60ad07244fc *gd78-04-08 s1t07 Deal.flac
9ab751ab51642fe8db3a64b1988fe346 *gd78-04-08 s1t08 El Paso.flac
298641f42847d6484d5ad5a9ba793183 *gd78-04-08 s1t09 It Must Have Been The Roses.flac
4e567932c90af3abb8eb3276e40606bc *gd78-04-08 s1t10 Lazy Lightning.flac
6c7334a34adae071fd78636e33f0d033 *gd78-04-08 s1t11 Supplication.flac
f880b755027ee4c7d61031f6deeef7e9 *gd78-04-08 s2t01 Crowd.flac
ec33d0a45e2c06b4c7fa177b2afd6ac2 *gd78-04-08 s2t02 Samson & Delilah.flac
4faecbb6d36baebada3ed646c4ae821a *gd78-04-08 s2t03 Scarlet Begonias.flac
80856e57c50d06aca54ce61bbae71ef5 *gd78-04-08 s2t04 Fire On The Mountain.flac
4ed222be2fa4879c468b978100fbf910 *gd78-04-08 s2t05 Estimated Prophet.flac
bd36b294bbb85ea65c3ecd5805b7b662 *gd78-04-08 s2t06 Eyes Of The World.flac
c8fa061c96c26d6985a8a14291308cb0 *gd78-04-08 s2t07 Drums.flac
8ed41e54e6e66369c0c81e4fe7206685 *gd78-04-08 s2t08 Space.flac
74d8f324ac0ef7ff3001de60c8579c96 *gd78-04-08 s2t09 Sugar Magnolia.flac
f668f60a3bb858a06dda6886b2a95a35 *gd78-04-08 s2t10 Encore Break.flac
b368fbc19e0aaa7c574b4d4e45e433c5 *gd78-04-08 s2t11 One More Saturday Night.flac

Comments
etreedb.org
For administrative requests email contact@etreedb.org
This website written by Tom H Anderson and maintained by the etreedb.org community.

Cached: Tue, 24 Nov 2020 15:58:11 EST