Grateful Dead 04/14/78
Cassell Coliseum, Virginia Polytechnic, Blacksburg, VA
Source Summary
flac16/48kHz; Recording Info: Kathy Sublette's Master Audience Cassettes; Shure SM57 mics > Sony-TC158; Transfer Info:Cassette Master (Nakamichi DR-1)> Tascam DA-3000 (DSF 1-bit/5.6 MHz)> dBpoweramp > Adobe Audition CC 2019 > TLH flac2496; 24-bit > 16-bit via dBpoweramp
Grateful Dead
Cassell Coliseum
Virginia Polytechnic Institute & State University
Blacksburg, VA
Friday  April 14th, 1978

This is a 16/48 fileset. 24-bit > 16-bit via dBpoweramp

Recording Info:
Kathy Sublette's Master Audience Cassettes; Shure SM57 mics > Sony-TC158

Transfer Info:
Cassette Master (Nakamichi DR-1)> Tascam DA-3000 (DSF 1-bit/5.6 MHz)> dBpoweramp > Adobe Audition CC 2019 > TLH flac2496

Notes:
- Thanks to Kathy Sublette for the Master Audience Cassettes
- Thanks to Ted Mattes for finding the master cassettes
- Thanks to Charlie Miller for the transfer and coordinating this effort
- Thanks to Charlie Miller for the shnid83717 soundboard source which supplies an 0:08 patch in the "Me & My Uncle > Big River" transition
- Pitch corrected
- First audience source in general circulation for this date

Mastered by Scott Clugston
September 2019

Set One:
s1t01 - Crowd
s1t02 - Promised Land
s1t03 - Tennessee Jed
s1t04 - Me & My Uncle >
s1t05 - Big River
s1t06 - Peggy O
s1t07 - Looks Like Rain
s1t08 - Dire Wolf
s1t09 - It's All Over Now
s1t10 - Dupree's Diamond Blues
s1t11 - The Music Never Stopped

Set Two:
s2t01 - Crowd
s2t02 - Samson & Delilah
s2t03 - Smokestack Lightning tease
s2t04 - Ship of Fools
s2t05 - Dancin' in the Streets >
s2t06 - Drums >
s2t07 - Space >
s2t08 - The Other One >
s2t09 - Black Peter >
s2t10 - Sugar Magnolia
s2t11 - Encore Break
s2t12 - Johnny B. Goode

    length     expanded size    cdr  WAVE problems  fmt   ratio  filename
     0:36.227       6955564 B   cxx   --   ---xx   flac  0.5265  gd78-04-14 s1t01 Crowd.flac
     6:50.240      78766124 B   cxx   --   ---xx   flac  0.6000  gd78-04-14 s1t02 Promised Land.flac
    11:00.413     126799404 B   cxx   --   ---xx   flac  0.5934  gd78-04-14 s1t03 Tennessee Jed.flac
     2:59.613      34485804 B   cxx   --   ---xx   flac  0.6018  gd78-04-14 s1t04 Me & My Uncle.flac
     6:54.560      79595564 B   cxx   --   ---xx   flac  0.6068  gd78-04-14 s1t05 Big River.flac
     9:17.520     107043884 B   cxx   --   ---xx   flac  0.5897  gd78-04-14 s1t06 Peggy O.flac
    10:02.587     115696684 B   cxx   --   ---xx   flac  0.6067  gd78-04-14 s1t07 Looks Like Rain.flac
     5:38.800      65049644 B   cxx   --   ---xx   flac  0.6234  gd78-04-14 s1t08 Dire Wolf.flac
     9:12.293     106040364 B   cxx   --   ---xx   flac  0.6346  gd78-04-14 s1t09 It's All Over Now.flac
     5:29.787      63319084 B   cxx   --   ---xx   flac  0.6168  gd78-04-14 s1t10 Dupree's Diamond Blues.flac
     8:43.318     100477172 B   cxx   --   ---xx   flac  0.6102  gd78-04-14 s1t11 The Music Never Stopped.flac
     2:44.427      31569964 B   cxx   --   ---xx   flac  0.5900  gd78-04-14 s2t01 Crowd.flac
     7:40.440      88404524 B   cxx   --   ---xx   flac  0.6547  gd78-04-14 s2t02 Samson & Delilah.flac
     2:51.000      32832044 B   cxx   --   ---xx   flac  0.5998  gd78-04-14 s2t03 Smokestack tease.flac
     9:13.520     106275884 B   cxx   --   ---xx   flac  0.6131  gd78-04-14 s2t04 Ship Of Fools.flac
    16:44.040     192775724 B   cxx   --   ---xx   flac  0.6462  gd78-04-14 s2t05 Dancin' In The Streets.flac
    20:35.533     237222444 B   cxx   --   ---xx   flac  0.6531  gd78-04-14 s2t06 Drums.flac
     4:07.627      47544364 B   cxx   --   ---xx   flac  0.6379  gd78-04-14 s2t07 Space.flac
     8:11.893      94443564 B   cxx   --   ---xx   flac  0.6463  gd78-04-14 s2t08 The Other One.flac
    10:57.160     126174764 B   cxx   --   ---xx   flac  0.6237  gd78-04-14 s2t09 Black Peter.flac
     9:13.147     106204204 B   cxx   --   ---xx   flac  0.6761  gd78-04-14 s2t10 Sugar Magnolia.flac
     2:37.213      30185004 B   cxx   --   ---xx   flac  0.6159  gd78-04-14 s2t11 Encore Break.flac
     4:28.062      51468004 B   cxx   --   ---xx   flac  0.6757  gd78-04-14 s2t12 Johnny B. Goode.flac
   176:09.421    2029329780 B                            0.6272  (23 files)


b2e1380d239b7014c898ba296922ba0e *gd78-04-14 s1t01 Crowd.flac
9a93e69743ffa81d26a1e2f5ab80d34e *gd78-04-14 s1t02 Promised Land.flac
6cad5dbc2d867007f9f9a6555039260b *gd78-04-14 s1t03 Tennessee Jed.flac
74fd0e113ba606e1da1f53bce43d6829 *gd78-04-14 s1t04 Me & My Uncle.flac
185e622c444d11a2077c92805960705f *gd78-04-14 s1t05 Big River.flac
1a183da6caf8d491a8f23ff802381a8c *gd78-04-14 s1t06 Peggy O.flac
efff81940069b3b1cf63dc9afbbff27a *gd78-04-14 s1t07 Looks Like Rain.flac
42870905b35098f8a2b9c1e82e1d3af4 *gd78-04-14 s1t08 Dire Wolf.flac
168af9cd412c033d5c28b7ad807c8a03 *gd78-04-14 s1t09 It's All Over Now.flac
91416fcfdddffbf984476d7d38f46b63 *gd78-04-14 s1t10 Dupree's Diamond Blues.flac
2420e29e4ce37ed8bbd5aa5d2a685f56 *gd78-04-14 s1t11 The Music Never Stopped.flac
dd82b5f340e5a8e5a4341d77eca0ae63 *gd78-04-14 s2t01 Crowd.flac
e0f77b320ab0a1319f2082478c39e59c *gd78-04-14 s2t02 Samson & Delilah.flac
1240a6beec95419069caca27e69fe45e *gd78-04-14 s2t03 Smokestack tease.flac
071e138683ac1f40a75c674cf69495c8 *gd78-04-14 s2t04 Ship Of Fools.flac
e30291d0e053e3a007dfcd157050b185 *gd78-04-14 s2t05 Dancin' In The Streets.flac
3fed05cff4f52c304c404d2c9828367f *gd78-04-14 s2t06 Drums.flac
2c0db6ff285b4379f9d0e858ba879e0b *gd78-04-14 s2t07 Space.flac
e80fca3efdab6d1085b708c66fc7e6b1 *gd78-04-14 s2t08 The Other One.flac
fdbe67f2dcd7fef252f137a455878b21 *gd78-04-14 s2t09 Black Peter.flac
84eb1d9efc107c120c2071369e970cdf *gd78-04-14 s2t10 Sugar Magnolia.flac
f314263a0704feffd365b1ba11329b6a *gd78-04-14 s2t11 Encore Break.flac
8d89183fc5266f6372a89c0340dc0053 *gd78-04-14 s2t12 Johnny B. Goode.flac
ffp
gd78-04-14 s1t01 Crowd.flac:91a3356a613f0ecac18772d94d18b4ac
gd78-04-14 s1t02 Promised Land.flac:0b03a8ed46dad6c7423cd83100d282a8
gd78-04-14 s1t03 Tennessee Jed.flac:ad0705ca24a6585cb5b72bea08d56fe8
gd78-04-14 s1t04 Me & My Uncle.flac:3e0bea4bdfcb962663042db8d335d29d
gd78-04-14 s1t05 Big River.flac:940ca81f5cfbec4054416a46cf73a09d
gd78-04-14 s1t06 Peggy O.flac:bd7193ed98f019018ec108a51ef2dd8b
gd78-04-14 s1t07 Looks Like Rain.flac:21eb7f1719434b0ce28688a1ffb0f6d0
gd78-04-14 s1t08 Dire Wolf.flac:d98bfaa0d9310c79fd2963e65b507913
gd78-04-14 s1t09 It's All Over Now.flac:0e51ddc59d659de23db50dd09dc7ecc9
gd78-04-14 s1t10 Dupree's Diamond Blues.flac:175889dd65a34e77319095f17ca5b759
gd78-04-14 s1t11 The Music Never Stopped.flac:bdd6271eff7931e162d0943a9762e34e
gd78-04-14 s2t01 Crowd.flac:1f059064ceddd53004a2850f325136ff
gd78-04-14 s2t02 Samson & Delilah.flac:d855d684c6303cf4a6cf9d23a8642484
gd78-04-14 s2t03 Smokestack tease.flac:4b95e3f705086fecc7f4ec3abcf977a2
gd78-04-14 s2t04 Ship Of Fools.flac:d32ae86e82428f86fbaa1d5be77b01a3
gd78-04-14 s2t05 Dancin' In The Streets.flac:7d84b5fb94ea98cccc9f700f4b24cb92
gd78-04-14 s2t06 Drums.flac:4ad74ac9eb24784148e940460f8b57db
gd78-04-14 s2t07 Space.flac:caf3fdc8ccef43c3c5ab2dfff95c8b39
gd78-04-14 s2t08 The Other One.flac:bfdc899678c472d35c01e0a35b627e57
gd78-04-14 s2t09 Black Peter.flac:af87715dd740596cbb13d2997272dd5c
gd78-04-14 s2t10 Sugar Magnolia.flac:481e7bdfc726503faca2a1c8cdc08eb0
gd78-04-14 s2t11 Encore Break.flac:0dbc1bf338f7e1c87d7399b99926b2de
gd78-04-14 s2t12 Johnny B. Goode.flac:4d741bbe3a58509f26a0764a99a54006

Comments
etreedb.org
For administrative requests email contact@etreedb.org
This website written by Tom H Anderson and maintained by the etreedb.org community.

Cached: Fri, 23 Oct 2020 07:39:34 EDT