Grateful Dead 04/08/78
Veterans Memorial Coliseum, Jacksonville, FL
Source Summary
flac16; Source: SBD Master Reel (7" two track @ 7 1/2 ips - recorded by Betty Cantor) > PCM501ES @ 44.055 kHz > DAT (44k) - From the Tim Dalton collection; Transfer: DAT > Sony PCM-R500 > Tascam DA-3000 > wav 16-bit/44.1k - Transferred by Charlie Miller; Lineage: wav > Adobe Audition 3 > iZotope RX7 Advanced > iZotope Ozone 5 Advanced > CD Wave > Flac 16; edited and mastered SIRMick November 2019
Grateful Dead
Veterans Memorial Coliseum
Jacksonville, FL
04/08/1978


Source: SBD Master Reel (7" two track @ 7 1/2 ips - recorded by Betty Cantor) > PCM501ES @ 44.055 kHz > DAT (44k) - From the Tim Dalton collection.
Transfer: DAT > Sony PCM-R500 > Tascam DA-3000 > wav 16-bit/44.1k - Transferred by Charlie Miller
Lineage: wav > Adobe Audition 3 > iZotope RX7 Advanced > iZotope Ozone 5 Advanced > CD Wave > Flac 16



Set I

01   Mississippi Half-Step Uptown Toodeloo
02   Me And My Uncle >
03   Big River
04   They Love Each Other
05   Looks Like Rain
06   Deal
07   El Paso
08   It Must Have Been The Roses
09   Lazy Lightnin'  >
10   Supplication


Set II

01   tuning
02   Samson And Delilah
03   Scarlet Begonias >
04   Fire On The Mountain
05   Estimated Prophet >
Eyes Of The World >
Drums >
Space >
Sugar Magnolia

encore

One More Saturday Night



Thanks to Tim for providing this excellent source.

Thanks to Charlie for yet another great transfer.


edited and mastered
SIRMick
November 2019


shntool output:

    length     expanded size    cdr  WAVE problems  fmt   ratio  filename
    12:42.58      134553260 B   ---   --   ---xx   flac  0.4702  gd1978-04-08s101.flac
     3:04.09       32478812 B   ---   --   ---xx   flac  0.5138  gd1978-04-08s102.flac
     7:15.29       76802252 B   ---   --   ---xx   flac  0.4965  gd1978-04-08s103.flac
     8:58.30       94973804 B   ---   --   ---xx   flac  0.4430  gd1978-04-08s104.flac
     9:43.34      102921212 B   ---   --   ---xx   flac  0.4488  gd1978-04-08s105.flac
     6:36.32       69929708 B   ---   --   ---xx   flac  0.5267  gd1978-04-08s106.flac
     6:32.02       69153548 B   ---   --   ---xx   flac  0.4417  gd1978-04-08s107.flac
     9:28.36      100279916 B   ---   --   ---xx   flac  0.4234  gd1978-04-08s108.flac
     3:44.34       39593612 B   ---   --   ---xx   flac  0.5320  gd1978-04-08s109.flac
     5:21.35       56706764 B   ---   --   ---xx   flac  0.5398  gd1978-04-08s110.flac
     0:17.55        3128204 B   ---   --   ---xx   flac  0.3582  gd1978-04-08s201.flac
     8:31.41       90236876 B   ---   --   ---xx   flac  0.5268  gd1978-04-08s202.flac
    11:34.26      122482796 B   ---   --   ---xx   flac  0.5216  gd1978-04-08s203.flac
    14:22.54      152183852 B   ---   --   ---xx   flac  0.5026  gd1978-04-08s204.flac
    11:48.60      125032364 B   ---   --   ---xx   flac  0.4969  gd1978-04-08s205.flac
    11:47.30      124785404 B   ---   --   ---xx   flac  0.5112  gd1978-04-08s206.flac
    15:11.51      160820396 B   ---   --   ---xx   flac  0.4649  gd1978-04-08s207.flac
     6:21.27       67271948 B   ---   --   ---xx   flac  0.4542  gd1978-04-08s208.flac
    12:13.06      129315356 B   ---   --   ---xx   flac  0.5046  gd1978-04-08s209.flac
     5:28.04       57868652 B   ---   --   ---xx   flac  0.5204  gd1978-04-08s210.flac
   171:03.53     1810518736 B                            0.4880  (20 files)


66c035a30993a5d373e49f796b1b0195 *gd1978-04-08s101.flac
9d09daed2cdfe8f02df0a44500d1f8b4 *gd1978-04-08s102.flac
4c980494f961336f69e8888dea987fbf *gd1978-04-08s103.flac
b5c7711167c0fc808f5082a5b5d51e53 *gd1978-04-08s104.flac
73bdabf6b0bcaa7598338722a12fb121 *gd1978-04-08s105.flac
8c9daa8243c98f7c1e6285631420606d *gd1978-04-08s106.flac
22992fe5772c5842c2ea84e9bbe4ce00 *gd1978-04-08s107.flac
47b162d92480c4f5e9c3af7394cda542 *gd1978-04-08s108.flac
9e6f68bb11fa12b71ad85f96e28228b6 *gd1978-04-08s109.flac
78e97d6be2326d87f20611252c23eb89 *gd1978-04-08s110.flac
f6a3202de60d28688a77cfe1bb1f57df *gd1978-04-08s201.flac
4c90926e7aa6bf69240aa8b53041af85 *gd1978-04-08s202.flac
a056959002fd2659a00a294eb586492a *gd1978-04-08s203.flac
3220eeed3cd34c6f4d037442070aa6a0 *gd1978-04-08s204.flac
537e912767cbe63eaa6e7969f635e797 *gd1978-04-08s205.flac
8de293574bf05868bf4e9534aa82890b *gd1978-04-08s206.flac
4c0ae541523c059b4d6468017c86b761 *gd1978-04-08s207.flac
6bab8c3a0364a4fdea17057e37515b64 *gd1978-04-08s208.flac
741cf942e8c657e1f9a05ca0257da455 *gd1978-04-08s209.flac
b038c5539253dc37feb178af8be2b8a8 *gd1978-04-08s210.flac
ffp
gd1978-04-08s101.flac:6f3794cb40282d226f2de60a5244381f
gd1978-04-08s102.flac:1f09b19b8f73af54af9ef3b68d86f0e0
gd1978-04-08s103.flac:4c8081229038a2db2541a3a4513f17ef
gd1978-04-08s104.flac:3d8f49d426db77be7fdbe9d234c31bb5
gd1978-04-08s105.flac:27656fe9c36f7a09fe96800a5f230950
gd1978-04-08s106.flac:abae2e41917b8b682622df8427c6edce
gd1978-04-08s107.flac:68a8b57e35be6c88dca39d7084978575
gd1978-04-08s108.flac:eaccad0eab22500467c963449c93147c
gd1978-04-08s109.flac:a65884c96468aaa09734d684f1db4b70
gd1978-04-08s110.flac:d75dd9bbe2a6d242969f1b0ab61c8cfb
gd1978-04-08s201.flac:fc4cb99414892c140bc409e3799a21ed
gd1978-04-08s202.flac:4c3388953f8320e75fb8c8dc3efa0ca7
gd1978-04-08s203.flac:d7a1e190e6a8a2efcc7ee14b37d6fb64
gd1978-04-08s204.flac:359854e87102c30329c47dcf3724dd58
gd1978-04-08s205.flac:a4100b1d12a9e494aa669565dcea21f9
gd1978-04-08s206.flac:cd012e98dbe4ff20ab69cd37c7f09b29
gd1978-04-08s207.flac:38d76e5c44014314c93ae3498eb27b51
gd1978-04-08s208.flac:8eec8320e29823859b07dcae437ace38
gd1978-04-08s209.flac:44c1c7bcd9990ee499271ad26ee2439a
gd1978-04-08s210.flac:270efbf8c1efd6c437d0afae20e3c2ad

Comments
etreedb.org
For administrative requests email contact@etreedb.org
This website written by Tom H Anderson and maintained by the etreedb.org community.

Cached: Tue, 24 Nov 2020 14:59:57 EST