Grateful Dead 04/15/78
William & Mary Hall, Williamsburg, VA
Source Summary
flac16; Source: SBD Master Reel (7" two track @ 7 1/2 ips - recorded by Betty Cantor) > PCM501ES @ 44.055 kHz > DAT (44k) - From the Tim Dalton collection; Transfer: DAT > Sony PCM-R500 > Tascam DA-3000 > wav 16-bit/44.1k - Transferred by Charlie Miller; Lineage: wav > Adobe Audition 3 > iZotope RX7 Advanced > iZotope Ozone 5 Advanced > CD Wave > Flac 16; edited and mastered SIRMick December 2019
Grateful Dead
William And Mary Hall
College Of William And Mary
Williamsburg, VA
04/15/1978


Source: SBD Master Reel (7" two track @ 7 1/2 ips - recorded by Betty Cantor) > PCM501ES @ 44.055 kHz > DAT (44k) - From the Tim Dalton collection.
Transfer: DAT > Sony PCM-R500 > Tascam DA-3000 > wav 16-bit/44.1k - Transferred by Charlie Miller
Lineage: wav > Adobe Audition 3 > iZotope RX7 Advanced > iZotope Ozone 5 Advanced > CD Wave > Flac 16



Set I

01   tuning
02   Mississippi Half-Step Uptown Toodeloo
03   Passenger
04   Friend Of The Devil
05   El Paso
06   Brown Eyed Women
07   Let It Grow
08   Deal


Set II

01   tuning
02   Bertha >
03   Good Lovin'
04   Candyman
05   Sunrise >
06   Playing In The Band >
07   Drums >
08   Not Fade Away >
09   Morning Dew
10   Around And Around

encore

11   One More Saturday Night



Notes:

- "NFA" has been patched with shnid 147791 - Thank you Kathy Sublette, Ted Mattes, Charlie Miller and Scott Clugston.
- There were a number of small dropouts in the left channel of "NFA" which have been repaired.


Thanks to Tim Dalton for this source.

Thanks to Charlie Miller for the transfer


edited and mastered
SIRMick
December 2019


shntool output:

    length     expanded size    cdr  WAVE problems  fmt   ratio  filename
     2:00.34       21248012 B   ---   --   ---xx   flac  0.3558  gd1978-04-15s1t01.flac
    10:41.27      113135948 B   ---   --   ---xx   flac  0.5203  gd1978-04-15s1t02.flac
     5:31.19       58433132 B   ---   --   ---xx   flac  0.5298  gd1978-04-15s1t03.flac
     7:40.29       81212252 B   ---   --   ---xx   flac  0.4870  gd1978-04-15s1t04.flac
     5:45.01       60860396 B   ---   --   ---xx   flac  0.4826  gd1978-04-15s1t05.flac
     6:16.35       66408764 B   ---   --   ---xx   flac  0.4943  gd1978-04-15s1t06.flac
    15:42.59      166307612 B   ---   --   ---xx   flac  0.5178  gd1978-04-15s1t07.flac
     7:07.66       75478076 B   ---   --   ---xx   flac  0.5422  gd1978-04-15s1t08.flac
     1:12.63       12849020 B   ---   --   ---xx   flac  0.3681  gd1978-04-15s2t01.flac
     5:49.26       61624796 B   ---   --   ---xx   flac  0.5362  gd1978-04-15s2t02.flac
     8:35.64       90996572 B   ---   --   ---xx   flac  0.4979  gd1978-04-15s2t03.flac
    10:18.72      109184588 B   ---   --   ---xx   flac  0.4436  gd1978-04-15s2t04.flac
     3:51.43       40849580 B   ---   --   ---xx   flac  0.4718  gd1978-04-15s2t05.flac
    14:20.64      151854572 B   ---   --   ---xx   flac  0.5199  gd1978-04-15s2t06.flac
    11:51.08      125439260 B   ---   --   ---xx   flac  0.4823  gd1978-04-15s2t07.flac
    13:44.17      145393628 B   ---   --   ---xx   flac  0.4919  gd1978-04-15s2t08.flac
    10:48.35      114389564 B   ---   --   ---xx   flac  0.4803  gd1978-04-15s2t09.flac
     9:34.23      101307740 B   ---   --   ---xx   flac  0.5085  gd1978-04-15s2t10.flac
     4:53.52       51807548 B   ---   --   ---xx   flac  0.5496  gd1978-04-15s2t11.flac
   155:46.62     1648781060 B                            0.4991  (19 files)


e0ef0506b054f81c463c16a12fb5a3bb *gd1978-04-15s1t01.flac
236b7a73d7d91c8fb0e3ebc777e28cfd *gd1978-04-15s1t02.flac
c841fa3de05c090012af259504e61476 *gd1978-04-15s1t03.flac
792d728e80035c75f6c34cff31d85a3d *gd1978-04-15s1t04.flac
c3a01d3e2435235a39322f8fabfef6da *gd1978-04-15s1t05.flac
fc6881ab2c517795234d429eb48c273b *gd1978-04-15s1t06.flac
9858f9036df538e709907f6924ab6516 *gd1978-04-15s1t07.flac
40362d2161ccb5a7f7c174da869d1408 *gd1978-04-15s1t08.flac
f5292f99f10692a1d74d8d314c8bbc65 *gd1978-04-15s2t01.flac
09bbc74e974b350f897717dbfe734517 *gd1978-04-15s2t02.flac
b012f5b879b989db23ca932684848d5f *gd1978-04-15s2t03.flac
e5e22cf074da2b0bf013669242643c22 *gd1978-04-15s2t04.flac
082e2bb52d67b51a09ff8e7b75aa64a0 *gd1978-04-15s2t05.flac
53230d82c315c51dfa1c6cf00756bbed *gd1978-04-15s2t06.flac
88ce90daac637baa1c18957d1f4e4156 *gd1978-04-15s2t07.flac
5dadee05038f0eea6ae59e589369830f *gd1978-04-15s2t08.flac
0b976ab099d5bb57ee29a6b717acfeba *gd1978-04-15s2t09.flac
d0f9eb7913b73a81d341d644cec5a76b *gd1978-04-15s2t10.flac
74596a3c887ce40fe8dd8e0d8d988668 *gd1978-04-15s2t11.flac
ffp
gd1978-04-15s1t01.flac:5b8855b0fde85c29a268dff6cff7765a
gd1978-04-15s1t02.flac:8d133a547130a909087e1844c4730d7c
gd1978-04-15s1t03.flac:b1850ef76b911606e28ff68075f89f38
gd1978-04-15s1t04.flac:e2558f5097e632bdac51571c392ead40
gd1978-04-15s1t05.flac:492a05a3391c5f00b4ce37527e47df76
gd1978-04-15s1t06.flac:cd71627c5895da3149252ec55b4176c5
gd1978-04-15s1t07.flac:2c038b70efc9604d540b17019f30d4c8
gd1978-04-15s1t08.flac:315b9faaabf8b2e1e1dc56442aff772d
gd1978-04-15s2t01.flac:b1c19d866f748be87e0658cf0fb784ac
gd1978-04-15s2t02.flac:83ad356086058df9099d64bb821e91a7
gd1978-04-15s2t03.flac:1e26eefded26089058b0e80b72f38808
gd1978-04-15s2t04.flac:14574f59c95ab18f65e4d0f6b653e745
gd1978-04-15s2t05.flac:4c86d17c2e4a1985fb85a98e10c234db
gd1978-04-15s2t06.flac:0a97da3f4b1dce60bba69a79b925e927
gd1978-04-15s2t07.flac:f1048237a4312e515ae643d1be23f15c
gd1978-04-15s2t08.flac:264f2aed3ae64cfd29670366a1b57d34
gd1978-04-15s2t09.flac:7fadd8829990f755c4aa51ad8837bfff
gd1978-04-15s2t10.flac:e7298e99fb558905ef7364a5d340af83
gd1978-04-15s2t11.flac:ef9892882e8d32d9c69511dc1ea4d79f

Comments
etreedb.org
For administrative requests email contact@etreedb.org
This website written by Tom H Anderson and maintained by the etreedb.org community.

Cached: Wed, 21 Oct 2020 20:35:13 EDT