Grateful Dead 04/08/78
Veterans Memorial Coliseum, Jacksonville, FL
Source Summary
flac16; Matrix by Hunter Seamons using Final Cut Pro (FLAC > AIFF > Final Cut w/EQ > Soundtrack Pro > AIFF CD tracking via Audacity > FLAC16 via xACT w/meta-tagging) of shnid's 148006 & 147787.
Grateful Dead
Veterans Memorial Coliseum
Jacksonville, FL
April 8, 1978

Jerry Garcia - Lead Guitar, Vocals
Donna Jean Godchaux - Vocals
Keith Godchaux - Keyboards
Mickey Hart - Drums
Bill Kreutzmann - Drums
Phil Lesh - Electric Bass, Vocals
Bob Weir - Rhythm Guitar, Vocals


*Matrix*


-----------------------------------------------------------------
SBD (shnid=148006):

Source: SBD Master Reel (7" two track @ 7 1/2 ips - recorded by Betty Cantor) > PCM501ES @ 44.055 kHz > DAT (44k) - From the Tim Dalton collection.
Transfer: DAT > Sony PCM-R500 > Tascam DA-3000 > wav 16-bit/44.1k - Transferred by Charlie Miller
Lineage: wav > Adobe Audition 3 > iZotope RX7 Advanced > iZotope Ozone 5 Advanced > CD Wave > Flac 16

Thanks to Tim for providing this excellent source.

Thanks to Charlie for yet another great transfer.

edited and mastered
SIRMick
November 2019

[Circulated 11/7/19]

-----------------------------------------------------------------
AUD (shnid=147787):

This is a 16/48 fileset. 24-bit > 16-bit via dBpoweramp

Recording Info:
Kathy Sublette's Master Audience Cassettes; Shure SM57 mics > Sony-TC158

Transfer Info:
Cassette Master (Nakamichi DR-1)> Tascam DA-3000 (DSF 1-bit/5.6 MHz)> dBpoweramp > Adobe Audition CC 2019 > TLH flac2496

Notes:
- Thanks to Kathy Sublette for the Master Audience Cassettes
- Thanks to Ted Mattes for finding the master cassettes
- Thanks to Charlie Miller for the transfer and coordinating this effort
- Some funkiness at the beginning of "Samson & Delilah"
- Pitch corrected
- First audience source in general circulation for this date

Mastered by Scott Clugston
September 2019

[Circulated 10/23/19]

-----------------------------------------------------------------
Thank you to Tim Dalton, Charlie Miller and SIRMick for the SBD transfer,
to Kathy Sublette for recording the show,
to Ted Mattes, Charlie Miller and Scott Clugston for the AUD transfer,
and to David Beckwith for feedback.

Matrix by Hunter Seamons using Final Cut Pro (FLAC > AIFF > Final Cut w/EQ > Soundtrack Pro > AIFF CD tracking via Audacity > FLAC16 via xACT w/meta-tagging)
December 23, 2019


Set I
-----
d1t01 - Mississippi Half-Step Uptown Toodeloo
d1t02 - Me And My Uncle >
d1t03 - Big River
d1t04 - They Love Each Other
d1t05 - Looks Like Rain
d1t06 - Deal
d1t07 - El Paso
d1t08 - It Must Have Been The Roses
d1t09 - Lazy Lightning >
d1t10 - Supplication

Set II
-----
d2t01 - Samson And Delilah
d2t02 - Scarlet Begonias >
d2t03 - Fire On The Mountain
d3t01 - Estimated Prophet >
d3t02 - Eyes Of The World >
d3t03 - Drums >
d3t04 - Space >
d3t05 - Sugar Magnolia

Encore
------
d3t06 - One More Saturday Night


Notes:

AUD cut in the first part of Samson, 1:30 duration. Three clicks removed, one in Scarlet Begonias and two in FOTM. AUD cut right after FOTM, dampening crowd applause. 20 seconds of distortion/fluctuation in EOTW in SBD source, also present in previous transfers. 30 second AUD cut during Drums.


    length     expanded size    cdr  WAVE problems  fmt   ratio  filename
    13:30.52      143006348 B   ---   --   ---xx   flac  0.5150  gd78-04-08d1t01.flac
     3:01.59       32067212 B   ---   --   ---xx   flac  0.6238  gd78-04-08d1t02.flac
     9:07.57       96624908 B   ---   --   ---xx   flac  0.5304  gd78-04-08d1t03.flac
     8:58.24       94959692 B   ---   --   ---xx   flac  0.5102  gd78-04-08d1t04.flac
     9:32.63      101049020 B   ---   --   ---xx   flac  0.5167  gd78-04-08d1t05.flac
     7:45.31       82098956 B   ---   --   ---xx   flac  0.5626  gd78-04-08d1t06.flac
     6:32.09       69170012 B   ---   --   ---xx   flac  0.5199  gd78-04-08d1t07.flac
     9:46.00      103370444 B   ---   --   ---xx   flac  0.4882  gd78-04-08d1t08.flac
     3:44.31       39586556 B   ---   --   ---xx   flac  0.6236  gd78-04-08d1t09.flac
     5:22.04       56810252 B   ---   --   ---xx   flac  0.6128  gd78-04-08d1t10.flac
    10:10.59      107742812 B   ---   --   ---xx   flac  0.5523  gd78-04-08d2t01.flac
    11:30.41      121812476 B   ---   --   ---xx   flac  0.5696  gd78-04-08d2t02.flac
    15:26.13      163377020 B   ---   --   ---xx   flac  0.5441  gd78-04-08d2t03.flac
    11:48.33      124968860 B   ---   --   ---xx   flac  0.5465  gd78-04-08d3t01.flac
    11:57.58      126615260 B   ---   --   ---xx   flac  0.5551  gd78-04-08d3t02.flac
    14:43.24      155817692 B   ---   --   ---xx   flac  0.5216  gd78-04-08d3t03.flac
     6:36.74       70028492 B   ---   --   ---xx   flac  0.5248  gd78-04-08d3t04.flac
    12:00.29      127076252 B   ---   --   ---xx   flac  0.5661  gd78-04-08d3t05.flac
     5:31.19       58433132 B   ---   --   ---xx   flac  0.5784  gd78-04-08d3t06.flac
   177:07.05     1874615396 B                            0.5429  (19 files)


ffp
gd78-04-08d1t01.flac:2e047c803cd6a57c05f685af4d84f60c
gd78-04-08d1t02.flac:abeb36ef82eb5e72f1c2d5cc4c208366
gd78-04-08d1t03.flac:f73e5cb1b98129847225c7feacf7f9ae
gd78-04-08d1t04.flac:2cf62a725bdff9c9661ca2bc0986b185
gd78-04-08d1t05.flac:70d65d908142dafeec004fc10f4e8038
gd78-04-08d1t06.flac:c0dbb06e575294d31cef2a82da77e01d
gd78-04-08d1t07.flac:4677cacd43a9f6edd0da1f52c06bb9ee
gd78-04-08d1t08.flac:2f0ca1ce6c2bfc894d9148ac0cc282bd
gd78-04-08d1t09.flac:6d3e95474be0e1b16d4827f54ce89051
gd78-04-08d1t10.flac:2566ea88954eace5862f9034716a9f0e
gd78-04-08d2t01.flac:6919d10f50c86bb5344a7a19151eb9d8
gd78-04-08d2t02.flac:1883b65d65f989d13f76df2759274fa2
gd78-04-08d2t03.flac:61b2b575b2454c2451413c7bb826b034
gd78-04-08d3t01.flac:326c8d1d7bdf55d016120037b15c7c7e
gd78-04-08d3t02.flac:3258c1c8a4e18df4f2420d28b915065e
gd78-04-08d3t03.flac:6e0e4e7a809fd9cc97dd6b50bd29f6c8
gd78-04-08d3t04.flac:e2dc1a5d2f0ff6f204fcfffa62e27dcf
gd78-04-08d3t05.flac:53dcd1862cb83cff61b310073d03b1b9
gd78-04-08d3t06.flac:0713bdd9fb16b60eb964f2a2a8479452
3cb4498f40c236384a9cbaa048bce5a8 *gd78-04-08d1t01.flac
21ebdc158ffc966631581f5ffa9f65fc *gd78-04-08d1t02.flac
f89460442d9049e9d7da94540912d70b *gd78-04-08d1t03.flac
713310088ed2bf7692c8c146564729f9 *gd78-04-08d1t04.flac
b2ee583d90c9ef053d4305f65c8191fc *gd78-04-08d1t05.flac
53dcfffc4354bfc49017e49182c6709d *gd78-04-08d1t06.flac
e68dbc6415e29e9a4598bef6616af5ef *gd78-04-08d1t07.flac
dd0d1ebb5ddbc706eb2a6fc379481a29 *gd78-04-08d1t08.flac
4da2eb60f368f9e3fd55b09766640919 *gd78-04-08d1t09.flac
6ef165cfcf5c7317cb27ad235815fac0 *gd78-04-08d1t10.flac
dcf4cb04870991147fe1a1a003f04a2e *gd78-04-08d2t01.flac
b5fabb7085e28fcf092158b1d46baabd *gd78-04-08d2t02.flac
fc5938906f1dbef05755e95f9d3ad2dd *gd78-04-08d2t03.flac
795fea68ba77dcd0c8969e41215cac7f *gd78-04-08d3t01.flac
94c49d58b303c0988c267f70853cae4f *gd78-04-08d3t02.flac
467f7329aa00699a8baaebf1fcbfdc7b *gd78-04-08d3t03.flac
67bea5f55d4101ba3390fcd5d4f21541 *gd78-04-08d3t04.flac
a64890992f455841dadf03d5eefecd7a *gd78-04-08d3t05.flac
9f6d4df3b2a43d5f0cd31b1c7d083eea *gd78-04-08d3t06.flac

Comments
etreedb.org
For administrative requests email contact@etreedb.org
This website written by Tom H Anderson and maintained by the etreedb.org community.

Cached: Tue, 27 Oct 2020 05:59:54 EDT