Garcia 12/09/77
Gym, S.U.N.Y., Stony Brook, NY
Source Summary
JGB; set II; flac1648; Kathy Sublette's Master Audience Cassette; Shure SM57 mics > Sony-TC158; Transfer Info: Cassette Master (Nakamichi DR-1)> Tascam DA-3000 (DSF 1-bit/5.6 MHz)> dBpoweramp > Adobe Audition CC 2019 > TLH flac2496
Jerry Garcia Band
Gymnasium
State University Of New York
Stony Brook, NY
Friday   December 9th, 1977

This is a 16/48 fileset. 24-bit > 16-bit via dBpoweramp

Source Info:
Kathy Sublette's Master Audience Cassette; Shure SM57 mics > Sony-TC158

Transfer Info:
Cassette Master (Nakamichi DR-1)> Tascam DA-3000 (DSF 1-bit/5.6 MHz)> dBpoweramp > Adobe Audition CC 2019 > TLH flac2496

Notes:
- Thanks to Kathy Sublette for the Master Audience Cassette
- Thanks to Ted Mattes for finding the master cassettes
- Thanks to Charlie Miller for the transfer and coordinating this effort
- Missing "The Night They Drove Old Dixie Down"
- Thanks to Joe B. Jones for his assistance with the pitch correction

Mastered by Scott Clugston
January 2020

Set Two:
s2t01 - Midnight Moonlight
s2t02 - Gommorah
s2t03 - Tore Up Over You
s2t04 - Reuben & Cherise
s2t05 - Simple Twist of Fate
s2txx - The Night They Drove Old Dixie Down (missing)
s2t06 - Lonesome & A Long Way From Home

length expanded size cdr WAVE problems fmt ratio filename
15:07.733 174284844 B cxx -- ---xx flac 0.6038 jgb77-12-09 s2t01 Midnight Moonlight.flac
8:17.067 95436844 B cxx -- ---xx flac 0.5753 jgb77-12-09 s2t02 Gomorrah.flac
10:26.707 120327724 B cxx -- ---xx flac 0.6060 jgb77-12-09 s2t03 Tore Up Over You.flac
9:05.347 104706604 B cxx -- ---xx flac 0.6215 jgb77-12-09 s2t04 Reuben & Cherise.flac
15:33.453 179223084 B cxx -- ---xx flac 0.5803 jgb77-12-09 s2t05 Simple Twist Of Fate.flac
27:29.221 316650508 B cxx -- ---xx flac 0.5933 jgb77-12-09 s2t06 Lonesome & A Long Way From Home.flac
85:59.528 990629608 B 0.5956 (6 files)
jgb77-12-09 s2t01 Midnight Moonlight.flac:211be3e8180d28b214af32a2474f97f6
jgb77-12-09 s2t02 Gomorrah.flac:eecf349457471c5503520ae43f41ae2a
jgb77-12-09 s2t03 Tore Up Over You.flac:847a9b81922956b4598abada3de837c8
jgb77-12-09 s2t04 Reuben & Cherise.flac:6cea7e587749f5c2793863477d9efa25
jgb77-12-09 s2t05 Simple Twist Of Fate.flac:19133068aa7eeaa71672f7b30e9d76f5
jgb77-12-09 s2t06 Lonesome & A Long Way From Home.flac:4d3e2c257b9ebabd96d953e58b1c4378
cbae3bf36de4b6bb9d567fdfb82b4abd *jgb77-12-09 s2t01 Midnight Moonlight.flac
eb8656ac29c84cf6399209182ee1c975 *jgb77-12-09 s2t02 Gomorrah.flac
0870ac6c923f7d41fcd2f52b22361e3b *jgb77-12-09 s2t03 Tore Up Over You.flac
8a876eabaf8baf14482b3f6151b2c576 *jgb77-12-09 s2t04 Reuben & Cherise.flac
e329d3c9db85fadf2e0eff2f842acf7e *jgb77-12-09 s2t05 Simple Twist Of Fate.flac
ce7632d370e4412b0991ed63c8451025 *jgb77-12-09 s2t06 Lonesome & A Long Way From Home.flac

Comments
etreedb.org
For administrative requests email contact@etreedb.org
This website written by Tom H Anderson and maintained by the etreedb.org community.

Cached: Sat, 4 Dec 2021 02:21:04 EST