Garcia 12/09/77
Gym, S.U.N.Y., Stony Brook, NY
Source Summary
JGB; set II; flac2496; Kathy Sublette's Master Audience Cassette; Shure SM57 mics > Sony-TC158; Transfer Info: Cassette Master (Nakamichi DR-1)> Tascam DA-3000 (DSF 1-bit/5.6 MHz)> dBpoweramp > Adobe Audition CC 2019 > TLH flac2496
Jerry Garcia Band
Gymnasium
State University Of New York
Stony Brook, NY
Friday   December 9th, 1977

Source Info:
Kathy Sublette's Master Audience Cassette; Shure SM57 mics > Sony-TC158

Transfer Info:
Cassette Master (Nakamichi DR-1)> Tascam DA-3000 (DSF 1-bit/5.6 MHz)> dBpoweramp > Adobe Audition CC 2019 > TLH flac2496

Notes:
- Thanks to Kathy Sublette for the Master Audience Cassette
- Thanks to Ted Mattes for finding the master cassettes
- Thanks to Charlie Miller for the transfer and coordinating this effort
- Missing "The Night They Drove Old Dixie Down"
- Thanks to Joe B. Jones for his assistance with the pitch correction

Mastered by Scott Clugston
January 2020

Set Two:
s2t01 - Midnight Moonlight
s2t02 - Gommorah
s2t03 - Tore Up Over You
s2t04 - Reuben & Cherise
s2t05 - Simple Twist of Fate
s2txx - The Night They Drove Old Dixie Down (missing)
s2t06 - Lonesome & A Long Way From Home

jgb77-12-09 s2t01 Midnight Moonlight.flac:5f5d12981526a0d62624351170e47e72
jgb77-12-09 s2t02 Gomorrah.flac:83ca3d695907e2f5503d3be003c96e39
jgb77-12-09 s2t03 Tore Up Over You.flac:9f2aa243a30d3ee15f1f7aedce2b788f
jgb77-12-09 s2t04 Reuben & Cherise.flac:6906cbec34c7f1b6f325571f0ba67c8b
jgb77-12-09 s2t05 Simple Twist Of Fate.flac:29a6c0cffd74a8d18902dc047f122e7c
jgb77-12-09 s2t06 Lonesome & A Long Way From Home.flac:8c13869b2c868a73e4e92a253d21d3ba
c4419c4931505c71ca590aab6330bbfe *jgb77-12-09 s2t01 Midnight Moonlight.flac
9499acdc52651f83b27d6cc2a0fb88b5 *jgb77-12-09 s2t02 Gomorrah.flac
4d5b0bab3e926b8eb178a094a9f0a394 *jgb77-12-09 s2t03 Tore Up Over You.flac
6a248adcd73459f3a59416381129547e *jgb77-12-09 s2t04 Reuben & Cherise.flac
3ad795065fce9b6fc8856d462367d091 *jgb77-12-09 s2t05 Simple Twist Of Fate.flac
c2f1f25606ccb73f3335fa94517fdde9 *jgb77-12-09 s2t06 Lonesome & A Long Way From Home.flac
length expanded size cdr WAVE problems fmt ratio filename
15:07.733 522854444 B cxx -- ---xx flac 0.6663 jgb77-12-09 s2t01 Midnight Moonlight.flac
8:17.067 286310444 B cxx -- ---xx flac 0.6560 jgb77-12-09 s2t02 Gomorrah.flac
10:26.707 360983084 B cxx -- ---xx flac 0.6681 jgb77-12-09 s2t03 Tore Up Over You.flac
9:05.347 314119724 B cxx -- ---xx flac 0.6737 jgb77-12-09 s2t04 Reuben & Cherise.flac
15:33.453 537669164 B cxx -- ---xx flac 0.6578 jgb77-12-09 s2t05 Simple Twist Of Fate.flac
27:29.221 949951442 B cxx -- ---xx flac 0.6619 jgb77-12-09 s2t06 Lonesome & A Long Way From Home.flac
85:59.528 2971888302 B 0.6633 (6 files)

Comments
etreedb.org
For administrative requests email contact@etreedb.org
This website written by Tom H Anderson and maintained by the etreedb.org community.

Cached: Sat, 4 Dec 2021 02:21:41 EST