Fareed Haque Group 06/30/18
Winston's, Ocean Beach, CA
Source # 149169
Entered by Mark Goldey
Checksums md5 , ffp
Disc Counts 0 / 0
Media Size
Uncompressed: 1.3 GB (1399511220 bytes)
Date Circulated
Date Added
07/04/2018
03/01/2020
Download Text | Download Zip

Other Sources
Source Summary
Source 1: Microtech Gefell M20 (ortf) > nbob actives/Naiant PFA > Tascam DR-680 (24/48)
Location: Onstage, Center, 3' High
Source 2: AKG c460b/CK62 > Naiant Littlebox > Tascam DR-680 (24/48)
Location: Onstage, split 6' left and right side
Source 3: SBD > SD 744T > Coax > Tascam DR-680 (24/48)
Transfer: Audacity (align,amplify,resample,dither) > cdwav (track) > TLH (flac,meta)
Fareed Haque and his Funk Bros.
Winstons OB
Ocean Beach, Ca.
2018-06-30

Source 1: Microtech Gefell M20 (ortf) > nbob actives/Naiant PFA > Tascam DR-680 (24/48)
Location: Onstage, Center, 3' High
Source 2: AKG c460b/CK62 > Naiant Littlebox > Tascam DR-680 (24/48)
Location: Onstage, split 6' left and right side
Source 3: SBD > SD 744T > Coax > Tascam DR-680 (24/48)
Transfer: Audacity (align,amplify,resample,dither) > cdwav (track) > TLH (flac,meta)
Tagging : Foobar2000 Live Show Tagger

Recorded and Mastered by: Aaron Bowers (obaaron)

Setlist

Set 1:

01. Trance Hypothesis
02. Compared to What @
03. Funky Fareed
04. Seven Squared
05. Make a Hippy Happy

Set 2:

01. Massive
02. Giant Steps #
03. Creep %
04. Singh Song
05. Slippery Maji
06. Snow Crystal Snow
07. Jamies Jam
08. Hallelujah
09. Carry On &
10. Fearless ^

@ - Eddie Harris/Less MacCann version
# - John Coltrane cover
% - Radiohead cover
& - Crosby, Stills, Nash and Young cover
^ - Pink Floyd cover

Lineup:
Fareed Haque - Guitar & Leader
Greg Fundis - Drums
Alex Austin - Bass
Kevin Kozol - Keyboards

Thanks to Fareed Haque for allowing this recording

   length     expanded size    cdr  WAVE problems  fmt   ratio  filename
    10:13.44      108236732 B   ---   --   ---xx   flac  0.5780  FareedHaque2018-06-30s1t01.flac
     9:47.04      103556252 B   ---   --   ---xx   flac  0.5410  FareedHaque2018-06-30s1t02.flac
     6:46.19       71663132 B   ---   --   ---xx   flac  0.5251  FareedHaque2018-06-30s1t03.flac
    12:13.68      129461180 B   ---   --   ---xx   flac  0.5305  FareedHaque2018-06-30s1t04.flac
    11:40.20      123527084 B   ---   --   ---xx   flac  0.5836  FareedHaque2018-06-30s1t05.flac
     6:59.10       73935164 B   ---   --   ---xx   flac  0.5638  FareedHaque2018-06-30s2t01.flac
     6:01.36       63765116 B   ---   --   ---xx   flac  0.5653  FareedHaque2018-06-30s2t02.flac
     4:21.74       46214492 B   ---   --   ---xx   flac  0.4837  FareedHaque2018-06-30s2t03.flac
     7:44.60       81990764 B   ---   --   ---xx   flac  0.5552  FareedHaque2018-06-30s2t04.flac
    10:14.72      108478988 B   ---   --   ---xx   flac  0.6038  FareedHaque2018-06-30s2t05.flac
    10:54.07      115382108 B   ---   --   ---xx   flac  0.5631  FareedHaque2018-06-30s2t06.flac
    10:16.37      108749468 B   ---   --   ---xx   flac  0.5867  FareedHaque2018-06-30s2t07.flac
     4:11.25       44335244 B   ---   --   ---xx   flac  0.3941  FareedHaque2018-06-30s2t08.flac
    13:59.03      148006700 B   ---   --   ---xx   flac  0.5485  FareedHaque2018-06-30s2t09.flac
     6:49.26       72208796 B   ---   --   ---xx   flac  0.4692  FareedHaque2018-06-30s2t10.flac
   132:13.55     1399511220 B                            0.5497  (15 files)

No errors occured.

FareedHaque2018-06-30s1t01.flac:4ebe04b0b2d977c093abe20304df871d
FareedHaque2018-06-30s1t02.flac:ae5d4a20c9fab0606a7dbe35b513c2ab
FareedHaque2018-06-30s1t03.flac:5bf05a7f238a406dc137d36ea425c6c5
FareedHaque2018-06-30s1t04.flac:c2b5d6e7b62819eb77a2c5e4e87c2c08
FareedHaque2018-06-30s1t05.flac:e57eb2ba4ccb6c3e615494f93e7b4ef2
FareedHaque2018-06-30s2t01.flac:55d04362960853386fc5af32ab1267ea
FareedHaque2018-06-30s2t02.flac:78e1be3038e63d57f22cf25da60d8daf
FareedHaque2018-06-30s2t03.flac:b6fc0de6cf9b5644f052c1bdefbb38da
FareedHaque2018-06-30s2t04.flac:6f9060d716a1499a34c3dc2fa54a5f62
FareedHaque2018-06-30s2t05.flac:4f1ca2f56435d75c7d23c1979f03b65d
FareedHaque2018-06-30s2t06.flac:e8d4a2f4fcf2099f44f6004d0faef034
FareedHaque2018-06-30s2t07.flac:4dc51afbfbb116df1569cff7c43624ef
FareedHaque2018-06-30s2t08.flac:66fe17a2adde9fdd3af619ac9ce824e6
FareedHaque2018-06-30s2t09.flac:83cc68cff3084a51826222e4e478393d
FareedHaque2018-06-30s2t10.flac:6b069e52b92196cfaf3e40d97ffb09ab

No errors occured.


md5
0aad74fe5479cc762867e29b170154b2 *FareedHaque2018-06-30s1t01.flac
6697e3a0fce7e8cf3bee59c1466cb3be *FareedHaque2018-06-30s1t02.flac
56511593b3220e387bccc4eb40aa20b6 *FareedHaque2018-06-30s1t03.flac
70b85282b0f2c31fc2c1d91baeaadfc0 *FareedHaque2018-06-30s1t04.flac
ea597a5740a7954a0ef1a312cdfc8fa0 *FareedHaque2018-06-30s1t05.flac
62678f7af32bbe2e2d77050f44a7613c *FareedHaque2018-06-30s2t01.flac
bc0b86a6e532aec060cb8eb5e41b3767 *FareedHaque2018-06-30s2t02.flac
b13e263c9eea567b64897b64ec167b03 *FareedHaque2018-06-30s2t03.flac
3ffdad9b4e47947d86f45e37fd185c37 *FareedHaque2018-06-30s2t04.flac
28f75898d4922185dc53fa267aa4fe96 *FareedHaque2018-06-30s2t05.flac
6f5c758b2eae9f93ff7e0b9a2ac7f97a *FareedHaque2018-06-30s2t06.flac
85ce372dcfaa4af0e3941115bd9a17fa *FareedHaque2018-06-30s2t07.flac
f92db100c87db6bbcc168dec104c8177 *FareedHaque2018-06-30s2t08.flac
b4cf5c4b319b3e13110dcab05e87d6b6 *FareedHaque2018-06-30s2t09.flac
e9814490b425b3318f14f44c9007247e *FareedHaque2018-06-30s2t10.flac
ffp


FareedHaque2018-06-30s1t01.flac:4ebe04b0b2d977c093abe20304df871d
FareedHaque2018-06-30s1t02.flac:ae5d4a20c9fab0606a7dbe35b513c2ab
FareedHaque2018-06-30s1t03.flac:5bf05a7f238a406dc137d36ea425c6c5
FareedHaque2018-06-30s1t04.flac:c2b5d6e7b62819eb77a2c5e4e87c2c08
FareedHaque2018-06-30s1t05.flac:e57eb2ba4ccb6c3e615494f93e7b4ef2
FareedHaque2018-06-30s2t01.flac:55d04362960853386fc5af32ab1267ea
FareedHaque2018-06-30s2t02.flac:78e1be3038e63d57f22cf25da60d8daf
FareedHaque2018-06-30s2t03.flac:b6fc0de6cf9b5644f052c1bdefbb38da
FareedHaque2018-06-30s2t04.flac:6f9060d716a1499a34c3dc2fa54a5f62
FareedHaque2018-06-30s2t05.flac:4f1ca2f56435d75c7d23c1979f03b65d
FareedHaque2018-06-30s2t06.flac:e8d4a2f4fcf2099f44f6004d0faef034
FareedHaque2018-06-30s2t07.flac:4dc51afbfbb116df1569cff7c43624ef
FareedHaque2018-06-30s2t08.flac:66fe17a2adde9fdd3af619ac9ce824e6
FareedHaque2018-06-30s2t09.flac:83cc68cff3084a51826222e4e478393d
FareedHaque2018-06-30s2t10.flac:6b069e52b92196cfaf3e40d97ffb09ab

Comments
Date User Comment
etreedb.org
For administrative requests email contact@etreedb.org
This website written by Tom H Anderson and maintained by the etreedb.org community.

Cached: Fri, 4 Dec 2020 08:36:07 EST