Jefferson Airplane 09/30/89
Polo Field - Golden Gate Park, San Francisco, CA
Source # 149189
Entered by Mark Goldey
Checksums ja1989-09-30.md5 , ja1989-09-30.ffp
Disc Counts 0 / 0
Media Size Compressed: 967.07 MB (1014051054 bytes)
Uncompressed: 1.61 GB (1727395012 bytes)
Date Circulated
Date Added
03/06/2020
03/06/2020
Source Summary
Source: 2 mini Nakamichi CM 700 cardioids > Sony TC-D5M > Cassette Masters - taped by Mark Severson
Taped from DFC, 60" back from stage. The mics were 30 feet apart, equidistant from DFC. Left was on hat, right was on pole.
Transfer: Cassette Masters > Technics RS-B48R, dbx decoded > Tascam DA-3000 (DSF 1-bit/5.6 MHz) - transferred by Charlie Miller
Lineage: DSF 1-bit/5.6 MHz > DBPpoweramp > wav 24/96 > iZotope RX7 Advanced > iZotope Ozone 5 Advanced > iZotope RX7 Advanced > Wav 16/44.1 > CDWave > Flac 16
edited and mastered SIRMick
Jefferson Airplane
Polo Field
Golden Gate Park,
San Francisco, CA
09/30/1989


Source: 2 mini Nakamichi CM 700 cardioids > Sony TC-D5M > Cassette Masters - taped by Mark Severson
               Taped from DFC, 60" back from stage. The mics were 30 feet apart, equidistant from DFC. Left was on hat, right was on pole.
Transfer: Cassette Masters > Technics RS-B48R, dbx decoded > Tascam DA-3000 (DSF 1-bit/5.6 MHz) - transferred by Charlie Miller
Lineage: DSF 1-bit/5.6 MHz > DBPpoweramp > wav 24/96 > iZotope RX7 Advanced > iZotope Ozone 5 Advanced >  iZotope RX7 Advanced > Wav 16/44.1 > CDWave > Flac 16


Set I

01   Bill Graham and M Dung from the stage
02   She Has Funny Cars
03   Somebody To Love
04   Plastic Fantastic Lover
05   Won't You Try Saturday Afternoon?
06   Today
07   Good Shepherd
08   Lather
09   Solidarity
10   Wooden Ships
11   America
12   Freedom


Set II

01   stage announcements
02   Bill Graham and Wavy Gravy
03   San Francisco Bay Blues
04   Walkin' Blues
05   Death Don't Have No Mercy
06   I'll Be Alright Someday
07   99 Year Blues
08   Third Week In The Chelsea
09   Panda
10   Miracles
11   The Wheel
12   Paul thanks everyone and Grace points out Mr. Kaukonen
13   Ice Age
14   more thanks from Grace and Paul
15   Summer Of Love
16   True Love
17   Planes
18   White Rabbit
19   Volunteers

encore

20   It's No Secret
21   Rock Me Baby
22   Crown Of Creation
23   3/5th Of A Mile In 10 Seconds
24   Bill Graham thanks Paul Kanter and talks about his crazy idea for the outcome of  "The World Series"



Paul Kantner - guitar, vocals
Marty Balin - vocals
Jack Casady - bass
Jorma Kaukonen - guitar, vocals
Kenny Aronoff - percussion
Grace Slick - vocals
Randy Jackson - keyboards, guitar, vocals
Peter Kaukonen - keyboards
Tim Gorman - keyboards
Kenny Aronoff - drums



Comments:

- This was the last time that all of the original lineup played again.



Thanks to Mark Severson for an excellent capture.

Thanks to Charlie Miller for the transfer.


edited and mastered
SIRMick
March 2020


shntool output:

    length     expanded size    cdr  WAVE problems  fmt   ratio  filename
     2:28.48       26220140 B   ---   --   ---xx   flac  0.4692  ja1989-09-30s1t01.flac
     5:06.04       53987852 B   ---   --   ---xx   flac  0.6104  ja1989-09-30s1t02.flac
     3:43.36       39421916 B   ---   --   ---xx   flac  0.6523  ja1989-09-30s1t03.flac
     4:31.62       47950268 B   ---   --   ---xx   flac  0.6250  ja1989-09-30s1t04.flac
     5:39.57       59933708 B   ---   --   ---xx   flac  0.6099  ja1989-09-30s1t05.flac
     3:55.18       41496380 B   ---   --   ---xx   flac  0.5365  ja1989-09-30s1t06.flac
     5:39.64       59950172 B   ---   --   ---xx   flac  0.5614  ja1989-09-30s1t07.flac
     3:24.68       36145580 B   ---   --   ---xx   flac  0.5346  ja1989-09-30s1t08.flac
     6:36.07       69870908 B   ---   --   ---xx   flac  0.5712  ja1989-09-30s1t09.flac
     5:56.27       62861948 B   ---   --   ---xx   flac  0.6060  ja1989-09-30s1t10.flac
     9:04.73       96133340 B   ---   --   ---xx   flac  0.5926  ja1989-09-30s1t11.flac
     6:06.53       64687100 B   ---   --   ---xx   flac  0.6027  ja1989-09-30s1t12.flac
     0:56.44        9981932 B   ---   --   ---xx   flac  0.4751  ja1989-09-30s2t01.flac
     3:15.12       34426268 B   ---   --   ---xx   flac  0.4656  ja1989-09-30s2t02.flac
     4:37.68       49022780 B   ---   --   ---xx   flac  0.5212  ja1989-09-30s2t03.flac
     4:05.66       43373276 B   ---   --   ---xx   flac  0.5133  ja1989-09-30s2t04.flac
     4:09.28       43989500 B   ---   --   ---xx   flac  0.5287  ja1989-09-30s2t05.flac
     3:44.40       39607724 B   ---   --   ---xx   flac  0.5222  ja1989-09-30s2t06.flac
     5:45.38       60947420 B   ---   --   ---xx   flac  0.5572  ja1989-09-30s2t07.flac
     3:43.45       39443084 B   ---   --   ---xx   flac  0.4723  ja1989-09-30s2t08.flac
     7:43.34       81753212 B   ---   --   ---xx   flac  0.6235  ja1989-09-30s2t09.flac
     8:55.71       94541036 B   ---   --   ---xx   flac  0.6507  ja1989-09-30s2t10.flac
     1:59.67       21149228 B   ---   --   ---xx   flac  0.5029  ja1989-09-30s2t11.flac
     7:01.38       74353820 B   ---   --   ---xx   flac  0.5965  ja1989-09-30s2t12.flac
     1:05.11       11491916 B   ---   --   ---xx   flac  0.4797  ja1989-09-30s2t13.flac
     4:39.56       49347356 B   ---   --   ---xx   flac  0.5973  ja1989-09-30s2t14.flac
     3:46.24       39922892 B   ---   --   ---xx   flac  0.6776  ja1989-09-30s2t15.flac
     5:24.24       57210092 B   ---   --   ---xx   flac  0.6399  ja1989-09-30s2t16.flac
     2:48.19       29679932 B   ---   --   ---xx   flac  0.5830  ja1989-09-30s2t17.flac
     7:52.54       83387852 B   ---   --   ---xx   flac  0.6343  ja1989-09-30s2t18.flac
     2:29.44       26387132 B   ---   --   ---xx   flac  0.6745  ja1989-09-30s2t19.flac
     6:59.45       74017484 B   ---   --   ---xx   flac  0.6063  ja1989-09-30s2t20.flac
     2:53.50       30634844 B   ---   --   ---xx   flac  0.6051  ja1989-09-30s2t21.flac
     5:31.20       58435484 B   ---   --   ---xx   flac  0.6417  ja1989-09-30s2t22.flac
     1:28.46       15631436 B   ---   --   ---xx   flac  0.4617  ja1989-09-30s2t23.flac
   163:12.36     1727395012 B                            0.5870  (35 files)

flac fingerprints:

ja1989-09-30s1t01.flac:f184fd54dc273201588d26770340a1ab
ja1989-09-30s1t02.flac:7291b978d1872605e3db5a41972b6f06
ja1989-09-30s1t03.flac:4125ed32b5bd3ee16e9e72612e652487
ja1989-09-30s1t04.flac:eb2cf8d7637993ec9a114bd7d0173d5a
ja1989-09-30s1t05.flac:40bd9377a774f1c7f74da4cb97f60f77
ja1989-09-30s1t06.flac:35413afff157899934b1ac5d6d3f45ca
ja1989-09-30s1t07.flac:36e366a62ffe41bb28c1e230c351b62a
ja1989-09-30s1t08.flac:841133250e5003336de1b4f8b430118c
ja1989-09-30s1t09.flac:83ecd4caa1a35b78970d740466a129a3
ja1989-09-30s1t10.flac:4df5666fa717f7d42f6b9be3cba33bdb
ja1989-09-30s1t11.flac:412393d9f5b6d2c9a6e8fd5d4ff171bb
ja1989-09-30s1t12.flac:062cb38eb7ecad73a5fa71a38074bc7f
ja1989-09-30s2t01.flac:ad941e7e35854ae40b4c35f5fc0cd6a3
ja1989-09-30s2t02.flac:db825cd855ff31d39287376a803f07c6
ja1989-09-30s2t03.flac:03e542321b338df521fc52c366fe733e
ja1989-09-30s2t04.flac:e2e3a14a11139db9d4daa2b5822905fa
ja1989-09-30s2t05.flac:1f2db2bd59ce8fc9bc62447499c29f61
ja1989-09-30s2t06.flac:b0aec07d8843e6b256e1f218fc1c92b2
ja1989-09-30s2t07.flac:580a277c1847dc57a013d1902b6452d8
ja1989-09-30s2t08.flac:e1b870673a7c1a57c3240175eeaedbd3
ja1989-09-30s2t09.flac:bcc511f42af4f2fc93a8023f3c531faa
ja1989-09-30s2t10.flac:e07681383dda4767907fc7e9ff943344
ja1989-09-30s2t11.flac:31b6774fe1e363798902f0d2137b4eb6
ja1989-09-30s2t12.flac:08c0971f41d789ed809fd5c985d8c295
ja1989-09-30s2t13.flac:227792e5b9baf99477ebb4e18fef009a
ja1989-09-30s2t14.flac:6633948364525c87fd130b2a3810b6f0
ja1989-09-30s2t15.flac:a14209351654cfd63318f1df61bfaf0d
ja1989-09-30s2t16.flac:16061bdbb54ebdd872bf753a44b40fee
ja1989-09-30s2t17.flac:f1f6c0e5565de83166e9f7a45684545e
ja1989-09-30s2t18.flac:91fc075955ccba390c347d48724e4017
ja1989-09-30s2t19.flac:5b6865ebf2de4240a25f5b279cc61994
ja1989-09-30s2t20.flac:f02b92442266be40bcc0913acf767566
ja1989-09-30s2t21.flac:9a0250671f4e1f252a1a5a2e21499b27
ja1989-09-30s2t22.flac:ae83d3af55fa79698656cb74f28a2d35
ja1989-09-30s2t23.flac:0aeed98322e5f5725799c22051818fde


3122af448b72a54343abfff8029b3c1d *ja1989-09-30s1t01.flac
afb88ca04d1414029a3f7c90cc5176e7 *ja1989-09-30s1t02.flac
63c9dbbbcf5534404df572bd0effb420 *ja1989-09-30s1t03.flac
28b14fbe5ffd1b1cc7866b3e80fc4f5c *ja1989-09-30s1t04.flac
88df0a27d2bc82e02d14d15afb350688 *ja1989-09-30s1t05.flac
529639b2bc76d48c0c90c96faaf8aa95 *ja1989-09-30s1t06.flac
689a48589e43f8cee9e3ec2b45f7b82c *ja1989-09-30s1t07.flac
30475bb77fa9956e6884202c79e67303 *ja1989-09-30s1t08.flac
60e6f1490787beb6fca78e50b75d1c62 *ja1989-09-30s1t09.flac
690fe30187d9d21413d43024083ec4b3 *ja1989-09-30s1t10.flac
3824e60d1ee7f3765446c149d2f55e5b *ja1989-09-30s1t11.flac
8aa5ec175a6d519bc95461e20a94d2d1 *ja1989-09-30s1t12.flac
ba5c87347fc51ccda992caada21999c2 *ja1989-09-30s2t01.flac
ac5579e3af50da6b950c2e022f5844ee *ja1989-09-30s2t02.flac
ba3bb7c56b1d3dc15ed2155c998558ce *ja1989-09-30s2t03.flac
9a86739d10f1fd761596edca81e81349 *ja1989-09-30s2t04.flac
ac15436f7a33155b03e9ee689d4f78f2 *ja1989-09-30s2t05.flac
777acd920c94f6d41898ce28e03fec5b *ja1989-09-30s2t06.flac
3f6a0f9cf295a97033cb43a91126ab05 *ja1989-09-30s2t07.flac
82846fdca118f24e3feb300907f92f87 *ja1989-09-30s2t08.flac
a826121a8170d2fafef77b84975ccac3 *ja1989-09-30s2t09.flac
294cf455ccc059fb479a8d4e4c3a8011 *ja1989-09-30s2t10.flac
6d442a5f4bdfcd0f231a9e2a914a69df *ja1989-09-30s2t11.flac
6e9ac709a9666d1ca446b32059c1560f *ja1989-09-30s2t12.flac
bd4c0f4fd77872737ccc3ebb656fd762 *ja1989-09-30s2t13.flac
8989aaf80c2dc919695f204a99b96406 *ja1989-09-30s2t14.flac
92bdfcf22f41f913a2e4a8bbc4972f48 *ja1989-09-30s2t15.flac
dc637303d65d898a40ef901869a66045 *ja1989-09-30s2t16.flac
8a5d38ac8051c4df926560ed60dcb1b6 *ja1989-09-30s2t17.flac
800308bb5d9678c1783ea57b8b793bd8 *ja1989-09-30s2t18.flac
f975a9de187f5b26a14e1321e80ea2a8 *ja1989-09-30s2t19.flac
394d8e30263a3c16a98d22c6091d4934 *ja1989-09-30s2t20.flac
4ce0919147032a47e54110f2ddb49db3 *ja1989-09-30s2t21.flac
204cb05a5c72686baad7cf837a123bdd *ja1989-09-30s2t22.flac
f62ea58b1a8d62524ba1c1ce4b86fdad *ja1989-09-30s2t23.flac
ja1989-09-30s1t01.flac:f184fd54dc273201588d26770340a1ab
ja1989-09-30s1t02.flac:7291b978d1872605e3db5a41972b6f06
ja1989-09-30s1t03.flac:4125ed32b5bd3ee16e9e72612e652487
ja1989-09-30s1t04.flac:eb2cf8d7637993ec9a114bd7d0173d5a
ja1989-09-30s1t05.flac:40bd9377a774f1c7f74da4cb97f60f77
ja1989-09-30s1t06.flac:35413afff157899934b1ac5d6d3f45ca
ja1989-09-30s1t07.flac:36e366a62ffe41bb28c1e230c351b62a
ja1989-09-30s1t08.flac:841133250e5003336de1b4f8b430118c
ja1989-09-30s1t09.flac:83ecd4caa1a35b78970d740466a129a3
ja1989-09-30s1t10.flac:4df5666fa717f7d42f6b9be3cba33bdb
ja1989-09-30s1t11.flac:412393d9f5b6d2c9a6e8fd5d4ff171bb
ja1989-09-30s1t12.flac:062cb38eb7ecad73a5fa71a38074bc7f
ja1989-09-30s2t01.flac:ad941e7e35854ae40b4c35f5fc0cd6a3
ja1989-09-30s2t02.flac:db825cd855ff31d39287376a803f07c6
ja1989-09-30s2t03.flac:03e542321b338df521fc52c366fe733e
ja1989-09-30s2t04.flac:e2e3a14a11139db9d4daa2b5822905fa
ja1989-09-30s2t05.flac:1f2db2bd59ce8fc9bc62447499c29f61
ja1989-09-30s2t06.flac:b0aec07d8843e6b256e1f218fc1c92b2
ja1989-09-30s2t07.flac:580a277c1847dc57a013d1902b6452d8
ja1989-09-30s2t08.flac:e1b870673a7c1a57c3240175eeaedbd3
ja1989-09-30s2t09.flac:bcc511f42af4f2fc93a8023f3c531faa
ja1989-09-30s2t10.flac:e07681383dda4767907fc7e9ff943344
ja1989-09-30s2t11.flac:31b6774fe1e363798902f0d2137b4eb6
ja1989-09-30s2t12.flac:08c0971f41d789ed809fd5c985d8c295
ja1989-09-30s2t13.flac:227792e5b9baf99477ebb4e18fef009a
ja1989-09-30s2t14.flac:6633948364525c87fd130b2a3810b6f0
ja1989-09-30s2t15.flac:a14209351654cfd63318f1df61bfaf0d
ja1989-09-30s2t16.flac:16061bdbb54ebdd872bf753a44b40fee
ja1989-09-30s2t17.flac:f1f6c0e5565de83166e9f7a45684545e
ja1989-09-30s2t18.flac:91fc075955ccba390c347d48724e4017
ja1989-09-30s2t19.flac:5b6865ebf2de4240a25f5b279cc61994
ja1989-09-30s2t20.flac:f02b92442266be40bcc0913acf767566
ja1989-09-30s2t21.flac:9a0250671f4e1f252a1a5a2e21499b27
ja1989-09-30s2t22.flac:ae83d3af55fa79698656cb74f28a2d35
ja1989-09-30s2t23.flac:0aeed98322e5f5725799c22051818fde

Comments
Other Sources (comments)
Source: 2 mini Nakamichi CM... (0)
Date User Comment
etreedb.org
For administrative requests email contact@etreedb.org
This website written by Tom H Anderson and maintained by the etreedb.org community.

Cached: Fri, 19 Apr 2024 11:35:57 EDT