Tom Constanten 10/12/91
The Palomino, North Hollywood, CA
Source # 149885
Entered by shnfoobar
Checksums ffp , md5
Disc Counts 0 / 0
Media Size
Date Circulated
Date Added
05/14/2020
05/14/2020
Download Text | Download Zip

Other Sources
Source Summary
Flac1648 :
Source: DSBD > DAT Clone (48k) - from the collection of Stuccoholmes
DAT > Sony PCM-R500-P > RME Fireface UC > HP Elitebook Laptop > Adobe Audition 3.0.1 > wav 16/48 > iZotope RX7 Advanced > CD Wave > Flac 1648
Gratefully Yours
The Palomino
North Hollywood, CA
1991-10-12
"A Musical Tribute to the Grateful Dead by Their Friends"


Source: DSBD > DAT Clone (48k) - from the collection of Stuccoholmes
Transfer: DAT > Sony PCM-R500-P > RME Fireface UC > HP Elitebook Laptop > Adobe Audition 3.0.1 > wav 16/48
Lineage: wav > iZotope RX7 Advanced > CD Wave > Flac 1648


Set I
Acoustic Kingfish and Friends

01   intro
02   Deep Elem
03   Dire Wolf
04   Diamond Joe
05   Ripple
06   Fire On The Mountain
07   The Race Is On
08   Big Boss Man
09   Oh, Babe, It Ain’t No Lie
10   Cumberland Blues
11   band intros
12   Truckin’

@~@~@~@~@~@~@~@

Set II
Tom Constanten

[MISSING]St. Stephen/A Day In The Life
[MISSING]Friend Of The Devil/Boris The Spider
01   Dejavalse
02   The Ballad of Shane Muscatell
03   Mountains Of The Moon
04   Presto from Sonata in E
05   Dark Star > *

@~@~@~@~@~@~@~@

Electric Kingfish and Friends *

Set III

01   I Know You Rider >
02   Willie And The Hand Jive >
03   The Eleven
04   New New Minglewood Blues >
05   New Minglewood Blues
06   Althea
07   some more intros
08   Down Home Blues
09   John's Other
10   U.S. Blues


Set IV

01   tuning
02   Jump For Joy
03   Goodbye Yer Honor
04   Juke
05   Overnight Bag
06   Going Down The Road Feeling Bad >
07   Summertime
08   Candyman
09   Next Time You See Me
10   Deal
11   Around and Around




Barry Flast - guitar, keyboards, vocals
Barry Sless - guitar, pedal steel
Fred Campbell - guitar, vocals
Matthew Kelly - harmonica, guitar, vocals
Eric Parker - drums
David Nelson - guitar, mandolin, vocals
Tom Constanten - Yamaha CP-80/279
Papa John Creech - violin, vocals



Thanks to Stucco for this source.


edited and mastered
SIRMick
May 2020


shntool output:

    length     expanded size    cdr  WAVE problems  fmt   ratio  filename
     0:37.800       7257644 B   cxx   --   ---xx   flac  0.3767  gy1991-10-12s1t01.flac
     4:30.120      51863084 B   cxx   --   ---xx   flac  0.4317  gy1991-10-12s1t02.flac
     4:15.347      49026604 B   cxx   --   ---xx   flac  0.4189  gy1991-10-12s1t03.flac
     4:46.373      54983724 B   cxx   --   ---xx   flac  0.4054  gy1991-10-12s1t04.flac
     4:52.480      56156204 B   cxx   --   ---xx   flac  0.3965  gy1991-10-12s1t05.flac
     8:52.107     102164524 B   cxx   --   ---xx   flac  0.3824  gy1991-10-12s1t06.flac
     3:52.547      44649004 B   cxx   --   ---xx   flac  0.3872  gy1991-10-12s1t07.flac
     4:51.840      56033324 B   cxx   --   ---xx   flac  0.3639  gy1991-10-12s1t08.flac
     5:51.920      67568684 B   cxx   --   ---xx   flac  0.3571  gy1991-10-12s1t09.flac
     6:20.733      73100844 B   cxx   --   ---xx   flac  0.4028  gy1991-10-12s1t10.flac
     4:23.027      50501164 B   cxx   --   ---xx   flac  0.3102  gy1991-10-12s1t11.flac
     9:21.653     107837484 B   cxx   --   ---xx   flac  0.4162  gy1991-10-12s1t12.flac
     3:19.400      38284844 B   cxx   --   ---xx   flac  0.3440  gy1991-10-12s2t01.flac
     2:30.587      28912684 B   cxx   --   ---xx   flac  0.3639  gy1991-10-12s2t02.flac
     4:49.373      55559724 B   cxx   --   ---xx   flac  0.3559  gy1991-10-12s2t03.flac
     2:30.080      28815404 B   cxx   --   ---xx   flac  0.3569  gy1991-10-12s2t04.flac
    13:57.720     160842284 B   cxx   --   ---xx   flac  0.3816  gy1991-10-12s2t05.flac
     5:55.040      68167724 B   cxx   --   ---xx   flac  0.4535  gy1991-10-12s3t01.flac
     8:59.773     103636524 B   cxx   --   ---xx   flac  0.4250  gy1991-10-12s3t02.flac
     3:09.080      36303404 B   cxx   --   ---xx   flac  0.4354  gy1991-10-12s3t03.flac
     4:40.387      53834284 B   cxx   --   ---xx   flac  0.4599  gy1991-10-12s3t04.flac
     5:27.413      62863404 B   cxx   --   ---xx   flac  0.4496  gy1991-10-12s3t05.flac
     7:54.840      91169324 B   cxx   --   ---xx   flac  0.4084  gy1991-10-12s3t06.flac
     2:11.987      25341484 B   cxx   --   ---xx   flac  0.2937  gy1991-10-12s3t07.flac
     7:17.373      83975724 B   cxx   --   ---xx   flac  0.4059  gy1991-10-12s3t08.flac
     7:42.787      88855084 B   cxx   --   ---xx   flac  0.4217  gy1991-10-12s3t09.flac
     5:53.600      67891244 B   cxx   --   ---xx   flac  0.4349  gy1991-10-12s3t10.flac
     2:00.200      23078444 B   cxx   --   ---xx   flac  0.2833  gy1991-10-12s4t01.flac
     4:45.653      54845484 B   cxx   --   ---xx   flac  0.4233  gy1991-10-12s4t02.flac
     4:07.213      47465004 B   cxx   --   ---xx   flac  0.4253  gy1991-10-12s4t03.flac
     5:05.813      58716204 B   cxx   --   ---xx   flac  0.3936  gy1991-10-12s4t04.flac
     5:44.160      66078764 B   cxx   --   ---xx   flac  0.4115  gy1991-10-12s4t05.flac
     4:37.000      53184044 B   cxx   --   ---xx   flac  0.4453  gy1991-10-12s4t06.flac
     8:33.093      98513964 B   cxx   --   ---xx   flac  0.3768  gy1991-10-12s4t07.flac
     9:50.973     113466924 B   cxx   --   ---xx   flac  0.3712  gy1991-10-12s4t08.flac
     5:06.067      58764844 B   cxx   --   ---xx   flac  0.4342  gy1991-10-12s4t09.flac
     6:09.293      70904364 B   cxx   --   ---xx   flac  0.4171  gy1991-10-12s4t10.flac
     5:59.840      69089324 B   cxx   --   ---xx   flac  0.4701  gy1991-10-12s4t11.flac
   210:54.693    2429702792 B                            0.4019  (38 files)

flac fingerprints:

gy1991-10-12s1t01.flac:895ab29f626d20d07edf00826eea5f05
gy1991-10-12s1t02.flac:c323ff6f5c5d12682c194778f79460a9
gy1991-10-12s1t03.flac:38fd0edf09a0fc1d316b9efb976cf67e
gy1991-10-12s1t04.flac:4a5c4ee9d01b3750809860f5d9c10c12
gy1991-10-12s1t05.flac:fb179b1318405b329e74605e9dbad184
gy1991-10-12s1t06.flac:3b5b108d72ad9f8ec905fc8cd95e90df
gy1991-10-12s1t07.flac:54e6ff5c30e26b92c2703e135ffdf0f1
gy1991-10-12s1t08.flac:93c14ca1023e1b290ee305d5e01490f8
gy1991-10-12s1t09.flac:307e49ee65ae2a91c3970743025daf68
gy1991-10-12s1t10.flac:b1add8cebf1878391210ee735cb4ccfa
gy1991-10-12s1t11.flac:0183698e82c950375433bcfdf66a8baf
gy1991-10-12s1t12.flac:eb05c7f5f4fb6e2784db1bb78fb8edac
gy1991-10-12s2t01.flac:417405bef8ffb360dca71f4c4d1caa3e
gy1991-10-12s2t02.flac:ba1a673d3f3cc1174ff0c717cceff3ff
gy1991-10-12s2t03.flac:39ba1af7cefd75ffd0b89db44d36585c
gy1991-10-12s2t04.flac:1733eccd5788352bf6b36c8c0026d1ea
gy1991-10-12s2t05.flac:640fbab46c94e1f2328f2da3ed33951d
gy1991-10-12s3t01.flac:117bbfd35329bcfe620969bdb44d4eb4
gy1991-10-12s3t02.flac:c2472a0b6bd56ae6c46c907233d47874
gy1991-10-12s3t03.flac:a1eb7f7f7373d7eb70341faffa22b739
gy1991-10-12s3t04.flac:4e1c4c98fd21eb0d2dbfd9f441e9821f
gy1991-10-12s3t05.flac:aba595d9e31912ed5191a71fbe70416f
gy1991-10-12s3t06.flac:6c41d8e1958050868e78b51e396e4bde
gy1991-10-12s3t07.flac:2c9055bfbf1410e04aef2b536216cdd2
gy1991-10-12s3t08.flac:a61af46c6280e51a6e7bb833fab5d1fe
gy1991-10-12s3t09.flac:b5deab79c9073fad08ea7d68e93b3bf8
gy1991-10-12s3t10.flac:a0ed65dec0725456d52da917023b19b9
gy1991-10-12s4t01.flac:c911a00d7ef084f4d8d565b2ec741141
gy1991-10-12s4t02.flac:207dc758962b198db4a80b2fb144e0b3
gy1991-10-12s4t03.flac:348a8a6fd923917b483d66293526d2e7
gy1991-10-12s4t04.flac:46791ab30d1416a83b35d25e97e61e83
gy1991-10-12s4t05.flac:264dd166cd46a0e19379f159f8a143f7
gy1991-10-12s4t06.flac:13281c5a3aa3273533984af6a58aa036
gy1991-10-12s4t07.flac:45ad6c4f7c2a69b3098f05c7bd3f42b3
gy1991-10-12s4t08.flac:2274b05e49095972bb714cede0cc82d1
gy1991-10-12s4t09.flac:7bbba1bf28cde34d3a04c91d916681f2
gy1991-10-12s4t10.flac:3e07257dbf436a83aa3bbcbab2326dea
gy1991-10-12s4t11.flac:e59473310e546c1466cde43266923830



ffp
gy1991-10-12s1t01.flac:895ab29f626d20d07edf00826eea5f05
gy1991-10-12s1t02.flac:c323ff6f5c5d12682c194778f79460a9
gy1991-10-12s1t03.flac:38fd0edf09a0fc1d316b9efb976cf67e
gy1991-10-12s1t04.flac:4a5c4ee9d01b3750809860f5d9c10c12
gy1991-10-12s1t05.flac:fb179b1318405b329e74605e9dbad184
gy1991-10-12s1t06.flac:3b5b108d72ad9f8ec905fc8cd95e90df
gy1991-10-12s1t07.flac:54e6ff5c30e26b92c2703e135ffdf0f1
gy1991-10-12s1t08.flac:93c14ca1023e1b290ee305d5e01490f8
gy1991-10-12s1t09.flac:307e49ee65ae2a91c3970743025daf68
gy1991-10-12s1t10.flac:b1add8cebf1878391210ee735cb4ccfa
gy1991-10-12s1t11.flac:0183698e82c950375433bcfdf66a8baf
gy1991-10-12s1t12.flac:eb05c7f5f4fb6e2784db1bb78fb8edac
gy1991-10-12s2t01.flac:417405bef8ffb360dca71f4c4d1caa3e
gy1991-10-12s2t02.flac:ba1a673d3f3cc1174ff0c717cceff3ff
gy1991-10-12s2t03.flac:39ba1af7cefd75ffd0b89db44d36585c
gy1991-10-12s2t04.flac:1733eccd5788352bf6b36c8c0026d1ea
gy1991-10-12s2t05.flac:640fbab46c94e1f2328f2da3ed33951d
gy1991-10-12s3t01.flac:117bbfd35329bcfe620969bdb44d4eb4
gy1991-10-12s3t02.flac:c2472a0b6bd56ae6c46c907233d47874
gy1991-10-12s3t03.flac:a1eb7f7f7373d7eb70341faffa22b739
gy1991-10-12s3t04.flac:4e1c4c98fd21eb0d2dbfd9f441e9821f
gy1991-10-12s3t05.flac:aba595d9e31912ed5191a71fbe70416f
gy1991-10-12s3t06.flac:6c41d8e1958050868e78b51e396e4bde
gy1991-10-12s3t07.flac:2c9055bfbf1410e04aef2b536216cdd2
gy1991-10-12s3t08.flac:a61af46c6280e51a6e7bb833fab5d1fe
gy1991-10-12s3t09.flac:b5deab79c9073fad08ea7d68e93b3bf8
gy1991-10-12s3t10.flac:a0ed65dec0725456d52da917023b19b9
gy1991-10-12s4t01.flac:c911a00d7ef084f4d8d565b2ec741141
gy1991-10-12s4t02.flac:207dc758962b198db4a80b2fb144e0b3
gy1991-10-12s4t03.flac:348a8a6fd923917b483d66293526d2e7
gy1991-10-12s4t04.flac:46791ab30d1416a83b35d25e97e61e83
gy1991-10-12s4t05.flac:264dd166cd46a0e19379f159f8a143f7
gy1991-10-12s4t06.flac:13281c5a3aa3273533984af6a58aa036
gy1991-10-12s4t07.flac:45ad6c4f7c2a69b3098f05c7bd3f42b3
gy1991-10-12s4t08.flac:2274b05e49095972bb714cede0cc82d1
gy1991-10-12s4t09.flac:7bbba1bf28cde34d3a04c91d916681f2
gy1991-10-12s4t10.flac:3e07257dbf436a83aa3bbcbab2326dea
gy1991-10-12s4t11.flac:e59473310e546c1466cde43266923830
md5
95621fefb6c552189851cc086ab2021a *gy1991-10-12s1t01.flac
24b40b5ca5c67a25766802a451e6d08f *gy1991-10-12s1t02.flac
af3dac0f8d278e0e11e4a86a7102dce4 *gy1991-10-12s1t03.flac
d2f33e7956ed847c6cd62a71c3ab4ee6 *gy1991-10-12s1t04.flac
1c5cf166a7ac5826f0f848279d9d4d8b *gy1991-10-12s1t05.flac
a148e835f98870b9c67fd7ffb0e42c0e *gy1991-10-12s1t06.flac
0b94930ff5047a67f7e408c49a9fcff0 *gy1991-10-12s1t07.flac
182cc7a1405a968db199a8fd566cd485 *gy1991-10-12s1t08.flac
913fd4f5d50cd1acc6a9e14923c38c4b *gy1991-10-12s1t09.flac
ef6bf38b9218f8b3a36ed5ed3e2a0fe5 *gy1991-10-12s1t10.flac
c969565a20ad32dab26ee8f644db4efb *gy1991-10-12s1t11.flac
a74a1c531b59fea1be6be4c227f0f284 *gy1991-10-12s1t12.flac
eaaa752a41e75f7c82deea72a72b18b5 *gy1991-10-12s2t01.flac
cce44d6141624ae2ca6c6d6b12277bd3 *gy1991-10-12s2t02.flac
6ab4a9d3a2ba8b72182d47351d3ea2fc *gy1991-10-12s2t03.flac
cd59f2699a11589ae82b54ecdba5fada *gy1991-10-12s2t04.flac
5a675cac30631d0f584ef5b39356a6cd *gy1991-10-12s2t05.flac
4bd183b8c033217e9b41b2d569e3b1ee *gy1991-10-12s3t01.flac
bb6b04c27db8d6e79a98794441c0f52d *gy1991-10-12s3t02.flac
4d2595ac576f1b969240a56113400c91 *gy1991-10-12s3t03.flac
962ad35dfed4fd53bdf03d5cf02932b8 *gy1991-10-12s3t04.flac
c1cf3b51df89f6cbe52728d85fa4fd04 *gy1991-10-12s3t05.flac
0c2ee402c04c8415e560f4dd10bb671b *gy1991-10-12s3t06.flac
7bc5d59e0235ed78079170533e2cd0a6 *gy1991-10-12s3t07.flac
fb5732807d5a23078fade2befabc614d *gy1991-10-12s3t08.flac
b08cf2e3974e6193de7122a87c2214d0 *gy1991-10-12s3t09.flac
02346a2d06ca2841937025b6511423cc *gy1991-10-12s3t10.flac
cd4f9b759f76cd0d6032db1c0205f64c *gy1991-10-12s4t01.flac
e7f203f017b008440c803a9414cb4e5d *gy1991-10-12s4t02.flac
20165d9bdea0f95c4e6b860236ebfbe6 *gy1991-10-12s4t03.flac
e782965e83b46c96557c967cc5843488 *gy1991-10-12s4t04.flac
1e298f3903edd350767c84cb1761cf49 *gy1991-10-12s4t05.flac
b132e286540a09765f7e241237897cef *gy1991-10-12s4t06.flac
278ea89ad9e205f3af8e24dd49712a2c *gy1991-10-12s4t07.flac
52868d02a510d85f0674055cfa8e7dfa *gy1991-10-12s4t08.flac
83caccb99e50aae5b5a596bc46791dfe *gy1991-10-12s4t09.flac
2aa1aecd38bf74ed7cff8624a76226dc *gy1991-10-12s4t10.flac
b41a147067db4174cbedbf11fba897d1 *gy1991-10-12s4t11.flac

Comments
Date User Comment
etreedb.org
For administrative requests email contact@etreedb.org
This website written by Tom H Anderson and maintained by the etreedb.org community.

Cached: Sat, 13 Apr 2024 02:17:06 EDT