Knudsen Tape Collection 02/11/81
The Palladium, New York, NY
Source # 150124
Entered by x poordevil
Checksums knudsen.0096.jg1981-02-11.flac2448.ffp
Disc Counts 0 / 0
Media Size Compressed: 1.49 GB (1597917821 bytes)
Date Circulated
Date Added
06/15/2020
06/16/2020
Download Text | Download Zip
Other Sources
Source Summary
flac 2448: 2 Maxell UDXLII C-90 > Transfer info: Nakamichi CR-7A (Rebuilt by ESL August 2019) > Sound Devices MixPre-3M. Transfer by: Jay Haines on June 6, 2020. Dolby B on. #0096
In 2018 Jeff Knudsen donated his 5000+ cassette tape collection to www.shnflac.net.
The ensuing GEMS Lossless Legs production is releasing each of these tapes as raw transfers in digital format, one file per cassette side.

Transfer info: Nakamichi CR-7A (Rebuilt by ESL August 2019) -> Sound Devices MixPre-3M
Transfer by: Jay Haines on June 6, 2020. Dolby B on


Jerry Garcia Band
February 11, 1981
The Palladium - New York, NY


Tape 1
Side 1

01. How Sweet it Is
02. Catfish John
03. That's What Love Will Make You Do
04. Mississippi Moon

Side 2

01. Tore Up Over You
02. Tangled Up In Blue
03. I'll Take a Melody



Tape 2
Side 1

01. The Harder they Come
02. Mission in the Rain
03. Simple Twist of Fate

Side 2

01. Dear Prudence
02. Deal
03. Midnight Moonlight
04. Sugaree


********** The GEMS Knudsen Tape Project  **********

In 2018, Jeff Knudsen bestowed his tape collection to the AZ GEMS
team for distribution and archiving. We have cherry picked some shows
and released them but have only scratched the surface. The process
of producing a complete and accurate mastered file set is time consuming:
select the show, compare to existing sources, adjust the tape deck,
transfer to digital, speed correct, master, aquire the source ID and
torrent. We realized we would never release most of collection using this
method.

As long as music is on tapes in a closet, it is useless. If it circulates
it is preserved for others and for the future. Rather than go through
the whole file set creation process, we transfer each tape or tape
side as a single digital file. A two tape concert consists either two big
audio files, 1 for each tape or 4 big audio files, one for each side of
the two cassettes.  We transfer professionally using the best gear and
a high quality Analog to Digital device. The Azimuth and Dolby settings
are correct. We release these files for everyone. We do not evaluate
the quality of the source, master it, or track it.

The Knudsen Tape Project is about sharing the tapes.

In each numbered release, along with the digital music files, we
include a photo of the tapes. The goal is to release as many of the
tapes as possible to the website www.shnflac.net.

We think the fruits of this project will become more interesting as time
passes. We believe that access to raw, properly transferred audio will
be of value to both present and future listeners, researchers and others.
Audio mastering technology is moving at breakneck speed. We can only imagine
the future technology that will be available. Having access to unmastered sources
could be invaluable.

HISTORY

The collection was started with a box of tapes Jeff Knudsen recieved
from his friend Dick Latvala in the late 70's. Dick was just a regular
guy in Pahoa, Hawaii and had not yet begun officially working with the
Greatful Dead. Over time, Jeff's collection grew. At that time, tapes were
currency and Jeff had gold. His collection increased to about 5000 coveted
tapes, via mail trades and all night copy-athons. Jeff shared them freely
and widely. If you had a soundboard tape in your collection years ago there
is a good chance it came from Jeff Knudsen.

WHAT CAN I DO WITH IT ?

Every release in this project is from a band that allows it's fans
to trade music non-commercially. We neither add or take away from that
permission. We only ask that you credit the Knudsen Tape Project if you
use the material. We ask nothing else of you and you do not need
to ask permission to use them. Since we ask only for source credit, we would
rather not hear complaints. Take what you need and leave the rest.

LINEAGE QUESTIONS

The notion of documenting lineage is a modern one, or simply one Jeff
did not entertain. We do not have lineage information on most of these
tapes. Any information we have will be in the photo of the tapes.
Some of the tapes sound absolutely fantastic. Others may remind
you of a tape you had long ago.

Now the rest is up to the community, with whom we have absolute faith
in the ability to discern.

~~~~~~~~~~~~~~~~~~~~~~~~~~~~~~~~~~~~~~~~~~~~~~~

Contact shnflac@gmail.com if you need more information.


SHNTOOL OUTPUT



    length     expanded size    cdr  WAVE problems  fmt   ratio  filename
    42:35.129     735877196 B   cxx   h-   ---xx   flac  0.5724  jg1981-02-11-1A.flac
    34:51.405     602324762 B   cxx   h-   ---xx   flac  0.5860  jg1981-02-11-1B.flac
    41:01.390     708880418 B   cxx   h-   ---xx   flac  0.5744  jg1981-02-11-2A.flac
    40:52.496     706319024 B   cxx   h-   ---xx   flac  0.5898  jg1981-02-11-2B.flac
   159:20.421    2753401400 B                            0.5803  (4 files)


jg1981-02-11-1A.flac:bd62889eb7b71218879422bfb0ead934
jg1981-02-11-1B.flac:84e30c7bf5cb357fcd0c972a772fab4f
jg1981-02-11-2A.flac:60e3f7e9ee5a5c784b686c535879afc3
jg1981-02-11-2B.flac:ca0473daaed6d4ab53bb92f56955d882

Comments
Date User Comment
etreedb.org
For administrative requests email contact@etreedb.org
This website written by Tom H Anderson and maintained by the etreedb.org community.

Cached: Sun, 23 Jun 2024 04:02:18 EDT