Warren Haynes & Friends 12/06/18
The Orange Peel, Asheville, NC
Source # 151383
Entered by leoc
Checksums ffp , shntool
Disc Counts 0 / 0
Media Size Compressed: 166 MB (174063616 bytes)
Date Circulated
Date Added

01/04/2021
Download Text | Download Zip
Other Sources
Source Summary
Source: Schoeps CCM4V's>Lunatec V2>Sound Devices 722 (24/44) FOB/DRFC/KFC/ZFC/AARP 35' From Stage, 6 1/2' High DSP: Sound Devices 722>Sound Forge 10.0>CD Wave>flac(16) ID3 Tagged In Foobar 2000 Recorded By: Z-Man
Warren Haynes And 45 Cherry
Warren Haynes Christmas Pre Jam
The Orange Peel
Asheville, North Carolina
12/6/2018

Source: Schoeps CCM4V's>Lunatec V2>Sound Devices 722 (24/44)
FOB/DRFC/KFC/ZFC/AARP 35' From Stage, 6 1/2' High
DSP: Sound Devices 722>Sound Forge 10.0>CD Wave>flac(16)
ID3 Tagged In Foobar 2000
Recorded By: Z-Man
Seeded By: Z-Man

Disc I

01 Martin Anderson Banter And Introduction
02 *Mean Mistreated Mama
03 *End Of The Line
04 Warren Banter
05 Just Before The Bullets Fly
06 #One
07 @Soulshine
08 Martin Anderson Outro

Warren Haynes - Guitar And Vocals
Mike Barnes - Guitar
Jim Mascari - Keyboards
Johnny Jump - Bass
Rocky Lindsley - Drums

* Warren Solo
# With Jeff Anders On Guitar
@ With Jack Mascari On Guitar

warren452018-12-06d01t01.flac:5aecfc4e6a8a84a4cc7995d355bb87a8
warren452018-12-06d01t02.flac:dc5c2356a6dcd2173e3800d1271d135b
warren452018-12-06d01t03.flac:4c285d012f318f77d0fcf479967b51a5
warren452018-12-06d01t04.flac:2a80aa136d61ed8fd3e83a8a7b0e812f
warren452018-12-06d01t05.flac:10dfe5a46984c185a19270690109fa0d
warren452018-12-06d01t06.flac:c8b23c3f1101fb88e07260ba8091b9a4
warren452018-12-06d01t07.flac:fb4f2f71846803ca909379ce4fc91130
warren452018-12-06d01t08.flac:2479e1632b8c6696d4b25eba28ef5412

length     expanded size    cdr  WAVE problems  fmt   ratio  filename
     1:52.62       19902668 B   ---   --   ---xx   flac  0.3865  warren452018-12-06d01t01.flac
     3:38.30       38525804 B   ---   --   ---xx   flac  0.4088  warren452018-12-06d01t02.flac
     4:00.52       42458348 B   ---   --   ---xx   flac  0.4493  warren452018-12-06d01t03.flac
     2:37.21       27744236 B   ---   --   ---xx   flac  0.3623  warren452018-12-06d01t04.flac
     7:09.20       75722684 B   ---   --   ---xx   flac  0.5132  warren452018-12-06d01t05.flac
     6:15.25       66208844 B   ---   --   ---xx   flac  0.4537  warren452018-12-06d01t06.flac
     7:21.73       77964140 B   ---   --   ---xx   flac  0.5426  warren452018-12-06d01t07.flac
     2:34.48       27278540 B   ---   --   ---xx   flac  0.3808  warren452018-12-06d01t08.flac
    35:30.31      375805264 B                            0.4634  (8 files)
ffp
warren452018-12-06d01t01.flac:5aecfc4e6a8a84a4cc7995d355bb87a8
warren452018-12-06d01t02.flac:dc5c2356a6dcd2173e3800d1271d135b
warren452018-12-06d01t03.flac:4c285d012f318f77d0fcf479967b51a5
warren452018-12-06d01t04.flac:2a80aa136d61ed8fd3e83a8a7b0e812f
warren452018-12-06d01t05.flac:10dfe5a46984c185a19270690109fa0d
warren452018-12-06d01t06.flac:c8b23c3f1101fb88e07260ba8091b9a4
warren452018-12-06d01t07.flac:fb4f2f71846803ca909379ce4fc91130
warren452018-12-06d01t08.flac:2479e1632b8c6696d4b25eba28ef5412
length expanded size cdr WAVE problems fmt ratio filename
1:52.62 19902668 B --- -- ---xx flac 0.3865 warren452018-12-06d01t01.flac
3:38.30 38525804 B --- -- ---xx flac 0.4088 warren452018-12-06d01t02.flac
4:00.52 42458348 B --- -- ---xx flac 0.4493 warren452018-12-06d01t03.flac
2:37.21 27744236 B --- -- ---xx flac 0.3623 warren452018-12-06d01t04.flac
7:09.20 75722684 B --- -- ---xx flac 0.5132 warren452018-12-06d01t05.flac
6:15.25 66208844 B --- -- ---xx flac 0.4537 warren452018-12-06d01t06.flac
7:21.73 77964140 B --- -- ---xx flac 0.5426 warren452018-12-06d01t07.flac
2:34.48 27278540 B --- -- ---xx flac 0.3808 warren452018-12-06d01t08.flac
35:30.31 375805264 B 0.4634 (8 files)

Comments
Date User Comment
etreedb.org
For administrative requests email contact@etreedb.org
This website written by Tom H Anderson and maintained by the etreedb.org community.

Cached: Sat, 13 Apr 2024 03:35:39 EDT