Merl Saunders 06/07/87
Haight Street Fair, San Francisco, CA
Source # 152192
Entered by Todd
Checksums Merl Saunders and Friends 1987-06-07.ffp , Merl Saunders and Friends 1987-06-07.md5
Disc Counts 0 / 0
Media Size Compressed: 349.44 MB (366412185 bytes)
Uncompressed: 687.36 MB (720747276 bytes)
Date Circulated
Date Added
04/06/2021
04/06/2021
Source Summary
Source: (FOB) Neumann TLM170 > PCM (master) - from the Randy Fleck collection Transfer: PCM > Sony SL-HF860D > Sony PCM-601ESD > Behringer Ultramatch Pro (16-bit/44.1k) > Tascam SS-CDR200 >wav > 16/44.1 - transferred by Charlie Miller Lineage: wav > iZotope RX8 > CD Wav > flac 16 edited and mastered SIRMick April 2021
Merl Saunders and Friends
Haight Street Fair,
San Francisco, CA
06/07/1987

Source: (FOB)  Neumann TLM170 > PCM (master) - from the Randy Fleck collection
Transfer: PCM > Sony SL-HF860D > Sony PCM-601ESD > Behringer Ultramatch Pro  (16-bit/44.1k)  > Tascam SS-CDR200 >wav > 16/44.1 - transferred by Charlie Miller
Lineage: wav > iZotope RX8 > CD Wav > flac 16


01   Announcer > Wavy Gravy > Intro
02   Built For Comfort
03   After Midnight (includes band intros)
04   Do I Move You?
05   Still America @
06   Expressway To Your Heart *
07   Reggae Woman *
08   ~~encore break~~

encore

09   Fever #



Merl Saunders - keyboards, vocals
Michael Hinton - guitar
Tony Saunders - bass, vocal @
John Kahn - bass *
Bill Vitt - drums
Big John Chrisley - harmonica
John Henry - percussion
Pamela Rose - vocals #
Vikki Randall



Thanks to Randy Fleck, and Jason Scheuner from providing mmkk[,m               this source.

Thanks to Charlie Miller for the transfer.

edited and mastered
SIRMick
April 2021


shntool output:

    length     expanded size    cdr  WAVE problems  fmt   ratio  filename
     2:57.74       31396892 B   ---   --   ---xx   flac  0.3917  msf1987-06-07t01.flac
     7:24.49       78436892 B   ---   --   ---xx   flac  0.5261  msf1987-06-07t02.flac
    11:00.25      116482844 B   ---   --   ---xx   flac  0.5235  msf1987-06-07t03.flac
    10:26.50      110544044 B   ---   --   ---xx   flac  0.5057  msf1987-06-07t04.flac
     9:51.42      104351228 B   ---   --   ---xx   flac  0.4976  msf1987-06-07t05.flac
     7:05.16       75007676 B   ---   --   ---xx   flac  0.5357  msf1987-06-07t06.flac
    10:15.08      108504860 B   ---   --   ---xx   flac  0.5242  msf1987-06-07t07.flac
     2:10.37       23019068 B   ---   --   ---xx   flac  0.3864  msf1987-06-07t08.flac
     6:53.64       73003772 B   ---   --   ---xx   flac  0.5217  msf1987-06-07t09.flac
    68:05.65      720747276 B                            0.5084  (9 files)

flac fingerprints:

msf1987-06-07t01.flac:90c11b31b20426bc290cc92dcbc1da87
msf1987-06-07t02.flac:e1ae7aa6fbe4e7887dcf04f454bb0538
msf1987-06-07t03.flac:7cf11f8ad4470bbdbe9d93041f2d8ec8
msf1987-06-07t04.flac:e6591a5f321c6de1402a7477c380531e
msf1987-06-07t05.flac:d4c40d53a9cc1fd348ffcfafdef34e61
msf1987-06-07t06.flac:31eab6b51fe1dede5678180c791f97da
msf1987-06-07t07.flac:b5f55031cd4e893526fa0b4a8e9b9f55
msf1987-06-07t08.flac:0391bf414d893550e4c6af941a58a932
msf1987-06-07t09.flac:0abdf395823c71189e0200f4a26ce427

msf1987-06-07t01.flac:90c11b31b20426bc290cc92dcbc1da87
msf1987-06-07t02.flac:e1ae7aa6fbe4e7887dcf04f454bb0538
msf1987-06-07t03.flac:7cf11f8ad4470bbdbe9d93041f2d8ec8
msf1987-06-07t04.flac:e6591a5f321c6de1402a7477c380531e
msf1987-06-07t05.flac:d4c40d53a9cc1fd348ffcfafdef34e61
msf1987-06-07t06.flac:31eab6b51fe1dede5678180c791f97da
msf1987-06-07t07.flac:b5f55031cd4e893526fa0b4a8e9b9f55
msf1987-06-07t08.flac:0391bf414d893550e4c6af941a58a932
msf1987-06-07t09.flac:0abdf395823c71189e0200f4a26ce427
5ff8273c8eea079a066f4d64602d3822 *msf1987-06-07t01.flac
43abeff157c7eb002c018286e9c2c33f *msf1987-06-07t02.flac
4442ae46b69b1637d63bac8893ea3041 *msf1987-06-07t03.flac
ed5b37161327550ed6d8ef1d604ecd0b *msf1987-06-07t04.flac
8d1c2dcf78fe4db0ab34069de79ac978 *msf1987-06-07t05.flac
c7e16f9a8891b9f38ce8cb28ce99fdc4 *msf1987-06-07t06.flac
330f6e75aceb7a34269563bec7b119a9 *msf1987-06-07t07.flac
cfa9b11bc2fba72ca683b98d136c20a7 *msf1987-06-07t08.flac
4d32f939b0e589abab1d69e179f5234d *msf1987-06-07t09.flac

Comments
Other Sources (comments)
Nak 700 > Cm > ? > Flac (0)
Date User Comment
etreedb.org
For administrative requests email contact@etreedb.org
This website written by Tom H Anderson and maintained by the etreedb.org community.

Cached: Wed, 28 Feb 2024 13:31:07 EST