David Grisman Quintet 07/18/02
Merriweather Post Pavilion, Columbia, MD
Source # 152250
Entered by Mark Goldey
Checksums ffp
Disc Counts 0 / 0
Media Size Compressed: 445.2 MB (466826035 bytes)
Uncompressed: 802.18 MB (841143848 bytes)
Date Circulated
Date Added
04/15/2021
04/15/2021
Download Text | Download Zip
Other Sources
Source Summary
Aud> Unknown> WAV> CDR> EAC> FLAC> GEMS Edit Station> FLAC
David Grisman Quintet
Merriweather Post Pavilion
Columbia, MD
July 18, 2002
'JamGrass' Festival

Aud> Unknown> WAV> CDR> EAC> FLAC> GEMS Edit Station> FLAC

Transfer to and from CDR, tagging/organization by Rob 'Xghs' Feldman
Editing and Mastering by Jamie Waddell on the **GEMS** Edit Station.

Track Listing:
1. EMD
2. Mellow Mang
3. Fanny Hill
4. Cha Cha Chihuahua
5. Intros
6. Grateful Dawg
7. Assanhado
8. Bluegrass at the Beach
9. Slade
10. Dawgnation

Also performing during this event was
String Cheese Incident
Peter Rowan and Tony Rice
John Cowan Band
Jorma Kaukonen

Source Notes: This unknown source was converted from FLAC or SHN to WAV, and subsequently
burned to a CDR for my personal collection in the months following the show (late 2002/early 2003).
The Taper/recording equipment is currently unknown. The CDR sat on my shelf until Feb 2021, when it
was transferred to FLAC with EAC.

Jamie Waddell has kindly edited and mastered these resulting FLAC files and corrected the following:
- Removal of gaps of silence (dead air) between each track.
- lowering of crowd noise between tracks to bring it to a quieter level
- standard 'light touch' on the frequencies and average volume throughout.

Thank you Jamie for improving this show so we all may enjoy.

-Rob 'Xghs' Feldman
April, 2021

   length     expanded size    cdr  WAVE problems  fmt   ratio  filename
   17:05.14      180842972 B   ---   --   ---xx   flac  0.5486  dgq2002-07-18.aud.gems.t01.flac
   11:45.38      124451420 B   ---   --   ---xx   flac  0.5471  dgq2002-07-18.aud.gems.t02.flac
    6:15.40       66244124 B   ---   --   ---xx   flac  0.5674  dgq2002-07-18.aud.gems.t03.flac
    6:54.68       73189580 B   ---   --   ---xx   flac  0.5365  dgq2002-07-18.aud.gems.t04.flac
    4:02.16       42726476 B   ---   --   ---xx   flac  0.5119  dgq2002-07-18.aud.gems.t05.flac
    4:40.10       49415564 B   ---   --   ---xx   flac  0.5596  dgq2002-07-18.aud.gems.t06.flac
    7:31.06       79570556 B   ---   --   ---xx   flac  0.5774  dgq2002-07-18.aud.gems.t07.flac
    6:10.49       65383292 B   ---   --   ---xx   flac  0.5710  dgq2002-07-18.aud.gems.t08.flac
    8:00.06       84686156 B   ---   --   ---xx   flac  0.5814  dgq2002-07-18.aud.gems.t09.flac
    7:03.07       74633708 B   ---   --   ---xx   flac  0.5444  dgq2002-07-18.aud.gems.t10.flac
   79:28.29      841143848 B                            0.5550  (10 files)
ffp

dgq2002-07-18.aud.gems.t01.flac:6a5b6460611414d5afad94b83fd227c5
dgq2002-07-18.aud.gems.t02.flac:5ba40e81d53168f9ef7e59ba813de3c5
dgq2002-07-18.aud.gems.t03.flac:e8862dee21df0c2a98ea8112b031991e
dgq2002-07-18.aud.gems.t04.flac:99bf8ca5f2e9901912b7444381ba5706
dgq2002-07-18.aud.gems.t05.flac:672371494cb168adf839bfd070cc12f2
dgq2002-07-18.aud.gems.t06.flac:e74f9254013168f36317abfae8fcb024
dgq2002-07-18.aud.gems.t07.flac:4a1268966310ccf2a9bfbce54ef313b6
dgq2002-07-18.aud.gems.t08.flac:1892057a04250bea268ad9c3a0b86bc0
dgq2002-07-18.aud.gems.t09.flac:67f22b9dbdcf1d76931cd992492bf821
dgq2002-07-18.aud.gems.t10.flac:2c7a218ad12f4dd32e3745fac83f98f0

Comments
Date User Comment
etreedb.org
For administrative requests email contact@etreedb.org
This website written by Tom H Anderson and maintained by the etreedb.org community.

Cached: Sat, 20 Apr 2024 03:08:00 EDT