Leftover Salmon 09/05/21
Cervantes Masterpiece Ballroom, Denver, CO
Source # 153453
Entered by Mark Goldey
Checksums ffp
Disc Counts 0 / 0
Media Size Compressed: 505.49 MB (530047018 bytes)
Uncompressed: 1.06 GB (1134455372 bytes)
Date Circulated
Date Added
09/17/2021
09/23/2021
Download Text | Download Zip
Other Sources
Source Summary
Source: Schoeps CCM4V'S>Lunatec V2>Sound Devices 722 (24/44.1)
FOB/DFC/KFC/ZFC/AARP 35' From Stage, 7' High
DSP: Sound Devices 722>Sound Forge 10.0>CD Wave>flac(16)
Recorded By: Z-Man
Leftover Salmon
Cervantes Masterpiece Ballroom
Denver, Colorado
9/5/2021

Source: Schoeps CCM4V'S>Lunatec V2>Sound Devices 722 (24/44.1)
FOB/DFC/KFC/ZFC/AARP 35' From Stage, 7' High
DSP: Sound Devices 722>Sound Forge 10.0>CD Wave>flac(16)
ID3 Tagged In Foobar 2000
Recorded By: Z-Man
Seeded By: Z-Man
A Team Dirty South Recording

Disc I

01 Greeting By Vince
02 Who Put The Pepper In The Vasoline
03 Muddy Water Home >
04 Brownsville
05 Into Jam >
06 ? >
07 Battle Of New Orleans
08 Riding On >
09 Roses Are Free >
10 Hony Tonk Women >
11 Dangerman >
12 Goin' Back To Ol' Kentucky
13 Black Hole Sun
14 Walk And Don't Look Back >
15 *Hot Corn, Cold Corn

Disc II

01 Show Me Something Higher
02 Willin' >
03 Don't Bogart That Joint >
04 Cheese Frog Jam >
05 Fixin' To Die
06 #The Morning Sun
Encore:
07 Scott Morrell Bring Em' Back
08 3:20 >
09 Good Night To Boogie
10 Wake And Bake

* Fades Out As I Had A Battery Issue After Taping Phish Then Coming Here
# With Scott Morrell On Vocals

Vince Herman - Guitar And Vocals
Drew Emmitt - Mandolin, Electric Guitar, And Vocals
Andy Thorn - Banjo And Vocals
Greg Garrison - Bass And Vocals
Jay Starling - Keyboards, Dobro, Pedal Steel Guitar, And Vocals
Alwyn Robinson - Drums



length expanded size cdr WAVE problems fmt ratio filename
0:14.21 2519036 B --- -- ---xx flac 0.3203 leftover2021-09-05d01t01.flac
7:04.46 74901836 B --- -- ---xx flac 0.5066 leftover2021-09-05d01t02.flac
4:35.73 48681740 B --- -- ---xx flac 0.4701 leftover2021-09-05d01t03.flac
6:18.40 66773324 B --- -- ---xx flac 0.4957 leftover2021-09-05d01t04.flac
1:28.15 15558524 B --- -- ---xx flac 0.4063 leftover2021-09-05d01t05.flac
6:48.40 72065324 B --- -- ---xx flac 0.4654 leftover2021-09-05d01t06.flac
2:46.02 29287148 B --- -- ---xx flac 0.4277 leftover2021-09-05d01t07.flac
7:14.42 76656428 B --- -- ---xx flac 0.4720 leftover2021-09-05d01t08.flac
7:26.11 78700316 B --- -- ---xx flac 0.4850 leftover2021-09-05d01t09.flac
5:46.17 61074428 B --- -- ---xx flac 0.4893 leftover2021-09-05d01t10.flac
2:55.45 30975884 B --- -- ---xx flac 0.4861 leftover2021-09-05d01t11.flac
4:24.02 46574348 B --- -- ---xx flac 0.4351 leftover2021-09-05d01t12.flac
5:53.51 62389196 B --- -- ---xx flac 0.4666 leftover2021-09-05d01t13.flac
4:35.58 48646460 B --- -- ---xx flac 0.4726 leftover2021-09-05d01t14.flac
0:57.54 10181852 B --- -- ---xx flac 0.4623 leftover2021-09-05d01t15.flac
6:17.62 66648668 B --- -- ---xx flac 0.4781 leftover2021-09-05d02t01.flac
5:40.50 60093644 B --- -- ---xx flac 0.4254 leftover2021-09-05d02t02.flac
0:50.11 8845916 B --- -- ---xx flac 0.4355 leftover2021-09-05d02t03.flac
1:05.66 11621276 B --- -- ---xx flac 0.4792 leftover2021-09-05d02t04.flac
5:15.67 55723628 B --- -- ---xx flac 0.4396 leftover2021-09-05d02t05.flac
8:13.22 87016988 B --- -- ---xx flac 0.4695 leftover2021-09-05d02t06.flac
1:07.17 11858828 B --- -- ---xx flac 0.3853 leftover2021-09-05d02t07.flac
0:34.10 6021164 B --- -- ---xx flac 0.3802 leftover2021-09-05d02t08.flac
7:30.09 79401212 B --- -- ---xx flac 0.4889 leftover2021-09-05d02t09.flac
2:06.05 22238204 B --- -- ---xx flac 0.3906 leftover2021-09-05d02t10.flac
107:11.11 1134455372 B 0.4672 (25 files)

ffp
leftover2021-09-05d01t01.flac:8dbb04087d412e4ba3e7c5038337dd21
leftover2021-09-05d01t02.flac:2adf3d264d6f647a52541908e658d4a5
leftover2021-09-05d01t03.flac:30c1a859303dc61790ccfc1eab578367
leftover2021-09-05d01t04.flac:d97b527cc90422607c0603a24d2d32a0
leftover2021-09-05d01t05.flac:ac870cbc4786b9a210d27e195a37d5bc
leftover2021-09-05d01t06.flac:73d917ef587f0e3f10e6c1fcc8363fa3
leftover2021-09-05d01t07.flac:d8c6e5649246e28e15792cc9d284d0c4
leftover2021-09-05d01t08.flac:d1fb934f7835c0638020db143f3ecb67
leftover2021-09-05d01t09.flac:b7958a5626a437921978b4aac8db2c49
leftover2021-09-05d01t10.flac:37082bc6fb33554a9a332310b8585041
leftover2021-09-05d01t11.flac:08d6d1cea4302d24a41ff4409cf4a19d
leftover2021-09-05d01t12.flac:7412a2a94bceff1038ffdd12345741b8
leftover2021-09-05d01t13.flac:b4046a5f426f054fdaa7332457083834
leftover2021-09-05d01t14.flac:079302fc1cde7ef9d855d2c84267cbd7
leftover2021-09-05d01t15.flac:e2cdd24378dd9aa499c1bac8882a0632
leftover2021-09-05d02t01.flac:bbaf33aa565c03ed63c7e8b35ca4503b
leftover2021-09-05d02t02.flac:0f6c07bac1dbe79de51738480a07c7ee
leftover2021-09-05d02t03.flac:7aa82cc5cb256e7c592e0b230ab2747f
leftover2021-09-05d02t04.flac:6e1078af693d7b66f34245ec0d0feb9d
leftover2021-09-05d02t05.flac:e624e0d37a300c808b1014773fbcc351
leftover2021-09-05d02t06.flac:131e8f3b8fa6d24b5298329a70bc31b1
leftover2021-09-05d02t07.flac:4f577978777a9014450065ab8743ee71
leftover2021-09-05d02t08.flac:d8d12d815d4c87d61f49592bfd866023
leftover2021-09-05d02t09.flac:e0d156ac98f96041d68610aa504022c7
leftover2021-09-05d02t10.flac:3d4005f54928ecc4b6552ab2df1d44d1

Comments
Date User Comment
etreedb.org
For administrative requests email contact@etreedb.org
This website written by Tom H Anderson and maintained by the etreedb.org community.

Cached: Sun, 26 Jun 2022 16:30:32 EDT