Live Dead '69 11/12/21
Under The Bridge, London, England
Source # 154750
Entered by Mark Goldey
Checksums ffp , md5
Disc Counts 0 / 0
Media Size Compressed: 835.43 MB (876008046 bytes)
Uncompressed: 1.61 GB (1731569284 bytes)
Date Circulated
Date Added
12/21/2021
12/21/2021
Source Summary
16 bit
Source: soundboard > Sony PCM-M10* > wav 24/96 * patched out of Jelly
Lineage:wav > iZotope RX 9 Advanced > wav 16/44.1 > CD Wave > flac16
Recorded, edited and mastered SIRMick December 2021
Live Dead 69
Under The Bridge
London, England
11/12/2021

Source: soundboard > Sony PCM-M10* > wav 24/96   * patched out of Jelly
Lineage:wav 24/96  > iZotope RX 9 Advanced > wav 16/44.1 > CD Wave > flac16



Set I

01   intro by Michael Gaiman
02   Mountains Of The Moon *
03   People Are Strange *
04   Cryptical Envelopment (instrumental version)
05   Tom intros the rest of the band > tuning
06   Bertha
07   Big Boss Man
08   You Win Again
09   Casey Jones
10   Death Don't Have No Mercy
11   Cold Rain And Snow
12   I Know You Rider
13   Morning Dew



Set II

01   tuning
02   Dark Star
03   Tennessee Jed
04   Brown-Eyed Women
05   He's Gone
06   Deal
07   New Speedway Boogie >
08   Truckin' >
09    Not Fade Away
10   Johnny B. Goode



Tom Constanten (solo) *
Mark Karan - guitar, vocals
Slick Aguilar - guitar, vocals
Tony - Morley - bass, vocals
Richard Newman - drums




Comments:

Bonnie Dobson was due to appear but was unable to because of illness


Notes:

- There was a problem near the start of "Bertha" This was patched with another soundboard source - Thanks Jelly.


recorded, edited and mastered
SIRMick
December 2021


shntool out:

    length     expanded size    cdr  WAVE problems  fmt   ratio  filename
     1:02.18       10979180 B   ---   --   ---xx   flac  0.4592  ld69-2021-11-12s1t01.flac
     2:21.14       24905372 B   ---   --   ---xx   flac  0.4021  ld69-2021-11-12s1t02.flac
     2:02.22       21572588 B   ---   --   ---xx   flac  0.3997  ld69-2021-11-12s1t03.flac
     3:20.59       35418812 B   ---   --   ---xx   flac  0.3873  ld69-2021-11-12s1t04.flac
     0:45.13        7968620 B   ---   --   ---xx   flac  0.4520  ld69-2021-11-12s1t05.flac
    13:01.01      137770796 B   ---   --   ---xx   flac  0.5723  ld69-2021-11-12s1t06.flac
     7:37.59       80753612 B   ---   --   ---xx   flac  0.5083  ld69-2021-11-12s1t07.flac
     4:44.41       50194076 B   ---   --   ---xx   flac  0.4772  ld69-2021-11-12s1t08.flac
     5:03.63       53597420 B   ---   --   ---xx   flac  0.5385  ld69-2021-11-12s1t09.flac
    15:31.60      164369564 B   ---   --   ---xx   flac  0.4773  ld69-2021-11-12s1t10.flac
     8:44.73       92605340 B   ---   --   ---xx   flac  0.5301  ld69-2021-11-12s1t11.flac
    12:26.69      131756732 B   ---   --   ---xx   flac  0.5216  ld69-2021-11-12s1t12.flac
    12:53.65      136510124 B   ---   --   ---xx   flac  0.4727  ld69-2021-11-12s1t13.flac
     0:59.55       10537004 B   ---   --   ---xx   flac  0.3460  ld69-2021-11-12s2t01.flac
    10:42.05      113260604 B   ---   --   ---xx   flac  0.4621  ld69-2021-11-12s2t02.flac
     9:49.24      103956092 B   ---   --   ---xx   flac  0.5132  ld69-2021-11-12s2t03.flac
     6:33.61       69468716 B   ---   --   ---xx   flac  0.5514  ld69-2021-11-12s2t04.flac
     8:23.06       88743356 B   ---   --   ---xx   flac  0.4930  ld69-2021-11-12s2t05.flac
    10:07.48      107187740 B   ---   --   ---xx   flac  0.5460  ld69-2021-11-12s2t06.flac
     8:08.14       86116172 B   ---   --   ---xx   flac  0.5084  ld69-2021-11-12s2t07.flac
     9:01.62       95578268 B   ---   --   ---xx   flac  0.5304  ld69-2021-11-12s2t08.flac
     6:25.00       67914044 B   ---   --   ---xx   flac  0.4723  ld69-2021-11-12s2t09.flac
     3:49.04       40405052 B   ---   --   ---xx   flac  0.6199  ld69-2021-11-12s2t10.flac
   163:36.11     1731569284 B                            0.5059  (23 files)

flac fingerprints:

ld69-2021-11-12s1t01.flac:c63b3cf3086fe4b44935f61ef34439cb
ld69-2021-11-12s1t02.flac:f95621b323d6eb53589a2a6294fce540
ld69-2021-11-12s1t03.flac:6a79bb752d4a38be003318cc15c3c848
ld69-2021-11-12s1t04.flac:53c91791245a5ea1ade09a5f56db4818
ld69-2021-11-12s1t05.flac:881980b7b475d2f8a30b6963f8079c95
ld69-2021-11-12s1t06.flac:31255c8f20da87e1425d01d777c317fc
ld69-2021-11-12s1t07.flac:bfc575c8cbc45546eed68d2f595ae62e
ld69-2021-11-12s1t08.flac:6fc422f0b048fce1d54950ae5d503b9d
ld69-2021-11-12s1t09.flac:d8614d045991c1d585757c2bb1985163
ld69-2021-11-12s1t10.flac:8989db77973fae6b28af4c6984b91598
ld69-2021-11-12s1t11.flac:993da4038632244dbfd20fec5dc018dc
ld69-2021-11-12s1t12.flac:5cbb8948649f6beaf925476d86f35441
ld69-2021-11-12s1t13.flac:59e35f38fa0f8aafde9922f4bc4b864d
ld69-2021-11-12s2t01.flac:db9e860bd27e7fc95190c1ab623f3f5e
ld69-2021-11-12s2t02.flac:af1e2f4245a9fbe02a6113a75a6f033e
ld69-2021-11-12s2t03.flac:f8f4d9b729b814218bd05699ebe10923
ld69-2021-11-12s2t04.flac:837c192ee9ad3425b571e6e7601ea823
ld69-2021-11-12s2t05.flac:8be8188d01dcce649da64d0d9d48b7ca
ld69-2021-11-12s2t06.flac:d046d172ead19c3861b5d5b3c6974aa1
ld69-2021-11-12s2t07.flac:401556b9c827a6dbfdc8242b1a5265da
ld69-2021-11-12s2t08.flac:b720365c976c29a413468815eb607b69
ld69-2021-11-12s2t09.flac:07eb91905ffbcca02e37e5ce761dc867
ld69-2021-11-12s2t10.flac:b304b48bc018f1a06472b519a3f2aacd
ffp
ld69-2021-11-12s1t01.flac:c63b3cf3086fe4b44935f61ef34439cb
ld69-2021-11-12s1t02.flac:f95621b323d6eb53589a2a6294fce540
ld69-2021-11-12s1t03.flac:6a79bb752d4a38be003318cc15c3c848
ld69-2021-11-12s1t04.flac:53c91791245a5ea1ade09a5f56db4818
ld69-2021-11-12s1t05.flac:881980b7b475d2f8a30b6963f8079c95
ld69-2021-11-12s1t06.flac:31255c8f20da87e1425d01d777c317fc
ld69-2021-11-12s1t07.flac:bfc575c8cbc45546eed68d2f595ae62e
ld69-2021-11-12s1t08.flac:6fc422f0b048fce1d54950ae5d503b9d
ld69-2021-11-12s1t09.flac:d8614d045991c1d585757c2bb1985163
ld69-2021-11-12s1t10.flac:8989db77973fae6b28af4c6984b91598
ld69-2021-11-12s1t11.flac:993da4038632244dbfd20fec5dc018dc
ld69-2021-11-12s1t12.flac:5cbb8948649f6beaf925476d86f35441
ld69-2021-11-12s1t13.flac:59e35f38fa0f8aafde9922f4bc4b864d
ld69-2021-11-12s2t01.flac:db9e860bd27e7fc95190c1ab623f3f5e
ld69-2021-11-12s2t02.flac:af1e2f4245a9fbe02a6113a75a6f033e
ld69-2021-11-12s2t03.flac:f8f4d9b729b814218bd05699ebe10923
ld69-2021-11-12s2t04.flac:837c192ee9ad3425b571e6e7601ea823
ld69-2021-11-12s2t05.flac:8be8188d01dcce649da64d0d9d48b7ca
ld69-2021-11-12s2t06.flac:d046d172ead19c3861b5d5b3c6974aa1
ld69-2021-11-12s2t07.flac:401556b9c827a6dbfdc8242b1a5265da
ld69-2021-11-12s2t08.flac:b720365c976c29a413468815eb607b69
ld69-2021-11-12s2t09.flac:07eb91905ffbcca02e37e5ce761dc867
ld69-2021-11-12s2t10.flac:b304b48bc018f1a06472b519a3f2aacd
md5
5cac5cb1cb942b0bfef14d7cb51d5d9f *ld69-2021-11-12s1t01.flac
8d1535dd407eed6d268b37d7971853fe *ld69-2021-11-12s1t02.flac
63acece82decc4c26138d10323e57d0e *ld69-2021-11-12s1t03.flac
a755d33d35f4e9358a3f59f3d62fc0a4 *ld69-2021-11-12s1t04.flac
3db28006b9c132f6003768aa1834124a *ld69-2021-11-12s1t05.flac
d2760c88deeee9894a0083c7245ddd50 *ld69-2021-11-12s1t06.flac
5f26fd4295fda648bcfef81a58818891 *ld69-2021-11-12s1t07.flac
e7894f9933414af550d294d7baba2e8d *ld69-2021-11-12s1t08.flac
1432867fc59509539760b4cd6ef9925f *ld69-2021-11-12s1t09.flac
b729f16e8707a12bde8f39441edec383 *ld69-2021-11-12s1t10.flac
156fd22ae0116effd97d778f6fca0e55 *ld69-2021-11-12s1t11.flac
0a044e2f0afd8680982fa5ff6c7dd312 *ld69-2021-11-12s1t12.flac
3c090e81bbc526781821087eff0868e5 *ld69-2021-11-12s1t13.flac
9c777f947def6bea18a24c5efd631193 *ld69-2021-11-12s2t01.flac
b7b13928a107bedc3b05fe094e22dea4 *ld69-2021-11-12s2t02.flac
a8822778fedba27e289a3f993ca9b9ef *ld69-2021-11-12s2t03.flac
6449a451c1a321f3c99e467b03f3ea85 *ld69-2021-11-12s2t04.flac
755ca6dcac1994bdfb8a5895a4310e72 *ld69-2021-11-12s2t05.flac
11f575ba5276fb41d65146ae7172b8f5 *ld69-2021-11-12s2t06.flac
71c5d5b035cad3b933fd34f6d3f0b118 *ld69-2021-11-12s2t07.flac
fa71e9e1a2cc6920650ef823398115c1 *ld69-2021-11-12s2t08.flac
aa9dff2653d758d46859a145593ca18f *ld69-2021-11-12s2t09.flac
460f526586a76683dd69c99e9a998065 *ld69-2021-11-12s2t10.flac

Comments
Other Sources (comments)
Flac16 Sonic Studios... (0) 24 bit Source: soundboard... (0)
Date User Comment
etreedb.org
For administrative requests email contact@etreedb.org
This website written by Tom H Anderson and maintained by the etreedb.org community.

Cached: Sun, 25 Feb 2024 03:44:44 EST