Live Dead '69 11/12/21
Under The Bridge, London, England
Source # 154753
Entered by Mark Goldey
Checksums ffp , md5
Disc Counts 0 / 0
Media Size
Uncompressed: 5.27 GB (5654086132 bytes)
Date Circulated
Date Added
12/21/2021
12/21/2021
Source Summary
24 bit Source: soundboard > Sony PCM-M10* > wav 24/96 * patched out of Jelly Lineage:wav > iZotope RX 9 Advanced > CD Wave > flac24
Recorded, edited and mastered by SIRMick, December 2021
Live Dead 69
Under The Bridge
London, England
11/12/2021

Source: soundboard > Sony PCM-M10* > wav 24/96   * patched out of Jelly
Lineage:wav > iZotope RX 9 Advanced > CD Wave > flac24



Set I

01   intro by Michael Gaiman
02   Mountains Of The Moon *
03   People Are Strange *
04   Cryptical Envelopment (instrumental version)
05   Tom intros the rest of the band > tuning
06   Bertha
07   Big Boss Man
08   You Win Again
09   Casey Jones
10   Death Don't Have No Mercy
11   Cold Rain And Snow
12   I Know You Rider
13   Morning Dew



Set II

01   tuning
02   Dark Star
03   Tennessee Jed
04   Brown-Eyed Women
05   He's Gone
06   Deal
07   New Speedway Boogie >
08   Truckin' >
09    Not Fade Away
10   Johnny B. Goode



Tom Constanten (solo) *
Mark Karan - guitar, vocals
Slick Aguilar - guitar, vocals
Tony - Morley - bass, vocals
Richard Newman - drums




Comments:

Bonnie Dobson was due to appear but was unable to because of illness


Notes:

- There was a problem near the start of "Bertha" This was patched with another soundboard source - Thanks Jelly.


recorded, edited and mastered
SIRMick
December 2021


shntool out:

    length     expanded size    cdr  WAVE problems  fmt   ratio  filename
     1:02.240      35850284 B   cxx   --   ---xx   flac  0.5678  ld69-2021-11-12s1t01.flac
     2:21.187      81323564 B   cxx   --   ---xx   flac  0.5479  ld69-2021-11-12s1t02.flac
     2:02.293      70441004 B   cxx   --   ---xx   flac  0.5240  ld69-2021-11-12s1t03.flac
     3:20.787     115653164 B   cxx   --   ---xx   flac  0.5306  ld69-2021-11-12s1t04.flac
     0:45.173      26019884 B   cxx   --   ---xx   flac  0.5661  ld69-2021-11-12s1t05.flac
    13:01.013     449863724 B   cxx   --   ---xx   flac  0.6057  ld69-2021-11-12s1t06.flac
     7:37.787     263685164 B   cxx   --   ---xx   flac  0.5763  ld69-2021-11-12s1t07.flac
     4:44.547     163898924 B   cxx   --   ---xx   flac  0.5640  ld69-2021-11-12s1t08.flac
     5:03.840     175011884 B   cxx   --   ---xx   flac  0.5874  ld69-2021-11-12s1t09.flac
    15:31.800     536716844 B   cxx   --   ---xx   flac  0.5648  ld69-2021-11-12s1t10.flac
     8:44.973     302384684 B   cxx   --   ---xx   flac  0.5842  ld69-2021-11-12s1t11.flac
    12:26.920     430225964 B   cxx   --   ---xx   flac  0.5773  ld69-2021-11-12s1t12.flac
    12:53.867     445747244 B   cxx   --   ---xx   flac  0.5592  ld69-2021-11-12s1t13.flac
     0:59.733      34406444 B   cxx   --   ---xx   flac  0.5174  ld69-2021-11-12s2t01.flac
    10:42.067     369830444 B   cxx   --   ---xx   flac  0.5597  ld69-2021-11-12s2t02.flac
     9:49.320     339448364 B   cxx   --   ---xx   flac  0.5785  ld69-2021-11-12s2t03.flac
     6:33.813     226836524 B   cxx   --   ---xx   flac  0.5945  ld69-2021-11-12s2t04.flac
     8:23.080     289774124 B   cxx   --   ---xx   flac  0.5723  ld69-2021-11-12s2t05.flac
    10:07.640     350000684 B   cxx   --   ---xx   flac  0.5929  ld69-2021-11-12s2t06.flac
     8:08.187     281195564 B   cxx   --   ---xx   flac  0.5778  ld69-2021-11-12s2t07.flac
     9:01.827     312092204 B   cxx   --   ---xx   flac  0.5863  ld69-2021-11-12s2t08.flac
     6:25.000     221760044 B   cxx   --   ---xx   flac  0.5653  ld69-2021-11-12s2t09.flac
     3:49.027     131919404 B   cxx   --   ---xx   flac  0.6254  ld69-2021-11-12s2t10.flac
   163:36.120    5654086132 B                            0.5762  (23 files)


ffp
ld69-2021-11-12s1t01.flac:0a74c37f9e9d2cb7f5496521419c6c7b
ld69-2021-11-12s1t02.flac:a6b6c843b87fe53fad3753ea7eab44fa
ld69-2021-11-12s1t03.flac:a7ef10a83da566b88da7ba64e85d0c22
ld69-2021-11-12s1t04.flac:fcb533a0d9cefe23341141bd413a43ce
ld69-2021-11-12s1t05.flac:8e43d9b71c39c7a29ee28668d094310b
ld69-2021-11-12s1t06.flac:5c045263e804817e5aa578becf5e559c
ld69-2021-11-12s1t07.flac:38ed9213b6b4f6704dd4d57357448e32
ld69-2021-11-12s1t08.flac:aa2b0aef973dda4edd48cbe22ce6f991
ld69-2021-11-12s1t09.flac:d7353f4a8890bb01024357c1a76b5b81
ld69-2021-11-12s1t10.flac:e614541606c56adac4203739ecb9fed1
ld69-2021-11-12s1t11.flac:62ef1850b37b47311bf1f7c4acc9b8bc
ld69-2021-11-12s1t12.flac:a7ebd3942b24832e882b8edd2325daaf
ld69-2021-11-12s1t13.flac:0065ed6c1761ee3d48dd8212676ac2f6
ld69-2021-11-12s2t01.flac:2629a81019da90b80140e78f1417a731
ld69-2021-11-12s2t02.flac:9a3c4f757e50506356af4ab1f2c8aab0
ld69-2021-11-12s2t03.flac:c118ccc467f656556625fa8173480ed4
ld69-2021-11-12s2t04.flac:011f5813f3c2c94bdbf1f5e7479e2f38
ld69-2021-11-12s2t05.flac:42a2189cc3c6e8717a2aa9a2293dc3e2
ld69-2021-11-12s2t06.flac:0b440ab7750b2f899c830da1abf9e77f
ld69-2021-11-12s2t07.flac:5a6e2e4849f5b0e157ab20dffa1737cc
ld69-2021-11-12s2t08.flac:4a3861a584bed86c7cef8993c894f514
ld69-2021-11-12s2t09.flac:6943eb40891bdea70a28331016025213
ld69-2021-11-12s2t10.flac:47344e05ac21d30512cfee70e822efa1
md5
d9bd71360d043aea7644ccbff79abc19 *ld69-2021-11-12s1t01.flac
4b326d1a13c1a87aa2db4f14138c0be7 *ld69-2021-11-12s1t02.flac
645f4ec4fa2f93e73a6fc4ab75362179 *ld69-2021-11-12s1t03.flac
7204a66d1adadc2aee2c329fd66a0e7c *ld69-2021-11-12s1t04.flac
76ded61c2abdd4bbc32c6f3e969102ba *ld69-2021-11-12s1t05.flac
1971cb24363650cbd887cc6bfa68bb76 *ld69-2021-11-12s1t06.flac
46119ea4a3528656daec4b52786cd7d8 *ld69-2021-11-12s1t07.flac
1a21c246564ac02b107f1b2211936c53 *ld69-2021-11-12s1t08.flac
a73496e3755701b7643adab9cf62f7b8 *ld69-2021-11-12s1t09.flac
750f46eedc529a809e6238d85f96e89b *ld69-2021-11-12s1t10.flac
44fde022819213d5c97045b633529997 *ld69-2021-11-12s1t11.flac
6226a8d5cfd56f84c443d1aa8b5e99b7 *ld69-2021-11-12s1t12.flac
85a834b318ddaeddda1ea0a47b917153 *ld69-2021-11-12s1t13.flac
40ded02aa4cc6d40df985d56579c50f1 *ld69-2021-11-12s2t01.flac
ea05d8dcfcbbdcc503de8a9f7a4bdffc *ld69-2021-11-12s2t02.flac
a692f6c6d23a232eb21fa364c0f28f73 *ld69-2021-11-12s2t03.flac
c35f4682bfa93bf190b870ffc01fdfa4 *ld69-2021-11-12s2t04.flac
f86c32b3adffe396fe4cc7755aacbb7b *ld69-2021-11-12s2t05.flac
1a8c24ffdcfa52d4c5f9e970d5543346 *ld69-2021-11-12s2t06.flac
a2b90c0f33ea5fbee7f49078918cd13e *ld69-2021-11-12s2t07.flac
b5571444803099d6edd62ed4bdb5edd2 *ld69-2021-11-12s2t08.flac
35e007eeb21bf37a4e755454a5a5c254 *ld69-2021-11-12s2t09.flac
fde9d4bc06b32c445d5eba22b8043d37 *ld69-2021-11-12s2t10.flac

Comments
Other Sources (comments)
Flac16 Sonic Studios... (0) 16 bit Source:... (0)
Date User Comment
etreedb.org
For administrative requests email contact@etreedb.org
This website written by Tom H Anderson and maintained by the etreedb.org community.

Cached: Mon, 22 Apr 2024 12:18:55 EDT