Thunder & Lightning 04/23/89
Club Rodon, Athens, Greece
Source # 154889
Entered by Todd
Checksums tl1989-04-23.md5 , tl1989-04-23.ffp
Disc Counts 0 / 0
Media Size Compressed: 401.11 MB (420592465 bytes)
Uncompressed: 865.46 MB (907496296 bytes)
Date Circulated
Date Added
12/27/2021
12/27/2021
Source Summary
flac16 SBD > Cm > Cass > Cass Transfer 2021-11 (24-96) by Mossa Remaster: original files > iZotope RX 9 Advanced > iZotope Neutron 2 Advanced > iZotope RX 9 Advanced > wav 16/44.1 > CD Wave > flac16 edited and remastered SIRMick December 2021
Thunder and Lightning
Club Rodon
Athens, Greece
1989-04-23


Soure: stereo soundboard cassette (3rd gen)
Transfer 2021-11 (24-96) by Mossa
Remaster:  original files > iZotope RX 9 Advanced > iZotope Neutron 2 Advanced > iZotope RX 9 Advanced > wav 16/44.1 > CD Wave > flac16


01   Band intros
02   Ain't No Blues In California
03   Pride Of Man
04   DeKalb Blues
05   Four Floors Or Forty
06   Drugs And Alcohol
07   Small Walk-In Box
08   Down In//The Bottom
09   Six Weeks In Reno
10   Funky News
11   Southside
12   Nick's Highland Fling
13   Get Together
14   //You Can`t//Hurt Me No More



Nick Gravenites - guitar, vocals
John Cipollina - guitar, vocals
"Big" John Whitelaw - bass, vocals
Tony Johnson - drums


Additional notes:

- Originally seeeded by Mossa, he considered that it was for completists because of a really bad noise presence throughout the show. That noise has now been removed and this is a recording that is very worth listening to.
- Pitch adjustments - Thanks to Joe B. Jones for his help with this.
- some level adjustments made.


Original Notes:
-   incomplete show
-   again annoying hissy buzz in backgraound audible throughout the show (similar to 1989-04-20)
-   "Down In The Bottom" cuts in middle (tape flip)
-   "You Can`t Hurt Me No More" cuts in and had several cuts (repaired)


Thanks to Mossa for making this source available.  Outstanding work from Cip and then just over a month later he left this planet.


edited and remastered
SIRMick December 2021



shntool output:

    length     expanded size    cdr  WAVE problems  fmt   ratio  filename
     0:36.40        6444524 B   ---   --   ---xx   flac  0.3925  tl1989-04-23t01.flac
     5:45.26       60919196 B   ---   --   ---xx   flac  0.4558  tl1989-04-23t02.flac
     4:29.66       47606876 B   ---   --   ---xx   flac  0.4587  tl1989-04-23t03.flac
     6:04.07       64226108 B   ---   --   ---xx   flac  0.4574  tl1989-04-23t04.flac
     6:12.04       65630252 B   ---   --   ---xx   flac  0.4457  tl1989-04-23t05.flac
     7:19.00       77439644 B   ---   --   ---xx   flac  0.4326  tl1989-04-23t06.flac
     9:19.46       98715836 B   ---   --   ---xx   flac  0.4724  tl1989-04-23t07.flac
     5:08.45       54437084 B   ---   --   ---xx   flac  0.4896  tl1989-04-23t08.flac
     6:05.24       64442492 B   ---   --   ---xx   flac  0.4457  tl1989-04-23t09.flac
     5:25.34       57410012 B   ---   --   ---xx   flac  0.4990  tl1989-04-23t10.flac
     5:11.43       54961580 B   ---   --   ---xx   flac  0.4587  tl1989-04-23t11.flac
    12:42.71      134583836 B   ---   --   ---xx   flac  0.4690  tl1989-04-23t12.flac
     6:41.51       70856396 B   ---   --   ---xx   flac  0.4578  tl1989-04-23t13.flac
     4:42.33       49822460 B   ---   --   ---xx   flac  0.4999  tl1989-04-23t14.flac
    85:44.40      907496296 B                            0.4635  (14 files)

flac fingerprints:

tl1989-04-23t01.flac:fc04441f2396cf3abb929d8285d597e9
tl1989-04-23t02.flac:553d2c19985f00edecfee4044ef815a9
tl1989-04-23t03.flac:c89615d06fba41e0105a7765847d4bea
tl1989-04-23t04.flac:fc22773d7c3d2b0a94ccbfbd6774b2a9
tl1989-04-23t05.flac:58749b855b74a87ef7b26a1551cce35a
tl1989-04-23t06.flac:61b3c231cc19ca63a7334b8a6d60d272
tl1989-04-23t07.flac:c44729be7697abba19d1c775248283aa
tl1989-04-23t08.flac:b27957a075a01684729a2ecccdbe9d00
tl1989-04-23t09.flac:b8e1f55dfe1aadfd7eb50d34764ee6b0
tl1989-04-23t10.flac:34fc420357d7f5a60425eba914007ef9
tl1989-04-23t11.flac:8a313af143f0c44a403140d94d74ce24
tl1989-04-23t12.flac:68e811b06b2a30af9e08a5b494b6a580
tl1989-04-23t13.flac:99c526ece8d3bb3ac813e6f1c6c23b92
tl1989-04-23t14.flac:45854c6a9f1745bb588f35b8bbe56e39


fa1741a0b19c2929be9a4313f6b49395 *tl1989-04-23t01.flac
270b5dce7377e7e158a80d7dccc37186 *tl1989-04-23t02.flac
9def20e9f195ee3559eb3504ce3727fd *tl1989-04-23t03.flac
854b793cb339db51ea16689b8b50ca7f *tl1989-04-23t04.flac
0aea5cc15f70bb5986ec4a14990b37f3 *tl1989-04-23t05.flac
6a3d0a2e8925fdf8ea72d2ba52c43876 *tl1989-04-23t06.flac
beb7bac0b149e9ddbfc95d42e373f408 *tl1989-04-23t07.flac
d6c52250944a2ef5fe48358725487aec *tl1989-04-23t08.flac
ad73a9f4122b8c27c0ca563767fbcffb *tl1989-04-23t09.flac
4af191cdb55eb4967c85fa2d37aa001c *tl1989-04-23t10.flac
7792fbb48ac95e0a77f242c76508b90b *tl1989-04-23t11.flac
d2632c4c6d6ed4b6848df2de4ff8fb90 *tl1989-04-23t12.flac
b102dce01b7b1eec6b544f00a0a1a040 *tl1989-04-23t13.flac
6a1c08560dc24181ef9e703f23dd8000 *tl1989-04-23t14.flac
tl1989-04-23t01.flac:fc04441f2396cf3abb929d8285d597e9
tl1989-04-23t02.flac:553d2c19985f00edecfee4044ef815a9
tl1989-04-23t03.flac:c89615d06fba41e0105a7765847d4bea
tl1989-04-23t04.flac:fc22773d7c3d2b0a94ccbfbd6774b2a9
tl1989-04-23t05.flac:58749b855b74a87ef7b26a1551cce35a
tl1989-04-23t06.flac:61b3c231cc19ca63a7334b8a6d60d272
tl1989-04-23t07.flac:c44729be7697abba19d1c775248283aa
tl1989-04-23t08.flac:b27957a075a01684729a2ecccdbe9d00
tl1989-04-23t09.flac:b8e1f55dfe1aadfd7eb50d34764ee6b0
tl1989-04-23t10.flac:34fc420357d7f5a60425eba914007ef9
tl1989-04-23t11.flac:8a313af143f0c44a403140d94d74ce24
tl1989-04-23t12.flac:68e811b06b2a30af9e08a5b494b6a580
tl1989-04-23t13.flac:99c526ece8d3bb3ac813e6f1c6c23b92
tl1989-04-23t14.flac:45854c6a9f1745bb588f35b8bbe56e39

Comments
Other Sources (comments)
flac24 SBD > Cm > Cass >... (0)
Date User Comment
etreedb.org
For administrative requests email contact@etreedb.org
This website written by Tom H Anderson and maintained by the etreedb.org community.

Cached: Thu, 22 Feb 2024 07:24:20 EST