Melvin Seals & JGB 04/01/18
Be On Key Psychedelic Ripple, Denver, CO
Source # 155160
Entered by x poordevil
Checksums MS_JGB_2018-04-01.ffp
Disc Counts 0 / 0
Media Size
Date Circulated
Date Added
04/03/2018
01/05/2022
Download Text | Download Zip
Other Sources
Source Summary
Flac 16: 2 source matrix.
Source 1 : DPA 4027 (ORFT) > Naiant little Box > Tascam DR-70 JWmod
Source 2 : DPA 4018C (POS) > Sonosax SX-MR2 > Tascam DR-70 JWmod
Location: Directly in front of Pilar close to Dead center, mic on stand at 7.5 feet.
Transfer: Tascam DR-70 (24/96) wav -> USB cable -> PC
Editing: Wavelab plugins -> Flac(16)
Recorded by Patrick H.
Melvin Seals and JGB
April 01, 2018
Be On Key Psychedelic Ripple
Denver, CO
Total Time = 136:48

2 source matrix.

Source 1 : DPA 4027 (ORFT) > Naiant little
            Box > Tascam DR-70 JWmod

Source 2 : DPA 4018C (POS) > Sonosax SX-MR2
            > Tascam DR-70 JWmod

Location: Directly in front of Pilar
close to Dead center, mic on stand at 7.5
feet.

Transfer: Tascam DR-70 (24/96) wav ->
USB cable -> PC

Editing: Wavelab plugins -> Flac(16)

MD5's and SBE checked and verified.
04/01/2017

Recorded by Patrick H.

Set 1 (74:03)
01 Lonesome and a long 11:24
    way from home
02 Love in the afternoon 5:43
03 Run for the Roses 7:28
04 Neighbor Neighbor 5:41
05 Gomorrah 11:18
06 Tore Up 7:15
07 Sugaree 13:46
08 Expressway 10:16

Set 2 (80:43)
01 Merl's Song 6:50
02 Rubin and Cherise 8:36
03 Don't Let Go 18:43
04 Waiting for a Miracle 7:09
05 Mighty High 7:41
06 Siser and Brothers > Lifeline 8:14
    Siser and Brothers
07 Magnificant Seven 6:36

Notes:  Last show of a three day
run with one new female vocalist
Sunshine Garcia. Other female
vocalist sang on day 1 and 2
though was sick this night
and did not attend. Each about
70+ minutes sets. Very strong show.
Well attended for Sunday night.

Sound at the venue was quite good.
Recording levels were solid and
no errors during the night.
Crowd noise can be heard though
is minimal.

Performance: A+
Sound Quality: A-

Support Live Music!

shntool
   length     expanded size    cdr  WAVE problems  fmt   ratio  filename
   11:24.46      120765836 B   ---   --   -----    wav  1.0000  MS_JGB_2018-04-01_S101.wav
    5:43.60       60646364 B   ---   --   -----    wav  1.0000  MS_JGB_2018-04-01_S102.wav
    7:28.49       79142492 B   ---   --   -----    wav  1.0000  MS_JGB_2018-04-01_S103.wav
    5:41.38       60241820 B   ---   --   -----    wav  1.0000  MS_JGB_2018-04-01_S104.wav
   11:18.58      119735660 B   ---   --   -----    wav  1.0000  MS_JGB_2018-04-01_S105.wav
    7:15.68       76893980 B   ---   --   -----    wav  1.0000  MS_JGB_2018-04-01_S106.wav
   13:46.21      145755836 B   ---   --   -----    wav  1.0000  MS_JGB_2018-04-01_S107.wav
   10:16.39      108754172 B   ---   --   -----    wav  1.0000  MS_JGB_2018-04-01_S108.wav
    6:50.65       72476924 B   ---   --   -----    wav  1.0000  MS_JGB_2018-04-01_S201.wav
    8:36.45       91128284 B   ---   --   -----    wav  1.0000  MS_JGB_2018-04-01_S202.wav
   18:43.02      198101948 B   ---   --   -----    wav  1.0000  MS_JGB_2018-04-01_S203.wav
    7:09.74       75849692 B   ---   --   -----    wav  1.0000  MS_JGB_2018-04-01_S204.wav
    7:41.10       81343964 B   ---   --   -----    wav  1.0000  MS_JGB_2018-04-01_S205.wav
    8:14.60       87282764 B   ---   --   -----    wav  1.0000  MS_JGB_2018-04-01_S206.wav
    6:36.21       69903836 B   ---   --   -----    wav  1.0000  MS_JGB_2018-04-01_S207.wav
  136:48.56     1448023572 B                            1.0000  (15 files)

ffp
MS_JGB_2018-04-01_S101.flac:17ab161b64841f1d34d4cb0abd0c6cfe
MS_JGB_2018-04-01_S102.flac:0f8edecf55f9d4e28cf2b9ffc4b6c38f
MS_JGB_2018-04-01_S103.flac:7217bad974b29d80d5db87165816d11c
MS_JGB_2018-04-01_S104.flac:4262cf3d4e3e63bc5b7baa3e90ee7452
MS_JGB_2018-04-01_S105.flac:5ccca1cfa8ef74b1f8d24c5edd9f19f4
MS_JGB_2018-04-01_S106.flac:7973a87039791b545369fbc3778cd14c
MS_JGB_2018-04-01_S107.flac:d2c037d662f201e6506eb329fce4e7f9
MS_JGB_2018-04-01_S108.flac:05add7558334c65f57457da1d56274f1
MS_JGB_2018-04-01_S201.flac:70082ca615d8057e26ad0164744ca03e
MS_JGB_2018-04-01_S202.flac:eb2d6b3d92441c4589e2bb1ec14ec9d3
MS_JGB_2018-04-01_S203.flac:a68c63bdf2d8aa44d8b7fdfefa1f475e
MS_JGB_2018-04-01_S204.flac:0e78cb56cd1bdfb4dd44791dbc2f460f
MS_JGB_2018-04-01_S205.flac:8ea56b8e5379cfc28c6043893eb1af66
MS_JGB_2018-04-01_S206.flac:27a30a412ae9b76d9f8667cc1572f469
MS_JGB_2018-04-01_S207.flac:1d3ee8a3636f8256b43569ed3e89211a

MS_JGB_2018-04-01_S101.flac:17ab161b64841f1d34d4cb0abd0c6cfe
MS_JGB_2018-04-01_S102.flac:0f8edecf55f9d4e28cf2b9ffc4b6c38f
MS_JGB_2018-04-01_S103.flac:7217bad974b29d80d5db87165816d11c
MS_JGB_2018-04-01_S104.flac:4262cf3d4e3e63bc5b7baa3e90ee7452
MS_JGB_2018-04-01_S105.flac:5ccca1cfa8ef74b1f8d24c5edd9f19f4
MS_JGB_2018-04-01_S106.flac:7973a87039791b545369fbc3778cd14c
MS_JGB_2018-04-01_S107.flac:d2c037d662f201e6506eb329fce4e7f9
MS_JGB_2018-04-01_S108.flac:05add7558334c65f57457da1d56274f1
MS_JGB_2018-04-01_S201.flac:70082ca615d8057e26ad0164744ca03e
MS_JGB_2018-04-01_S202.flac:eb2d6b3d92441c4589e2bb1ec14ec9d3
MS_JGB_2018-04-01_S203.flac:a68c63bdf2d8aa44d8b7fdfefa1f475e
MS_JGB_2018-04-01_S204.flac:0e78cb56cd1bdfb4dd44791dbc2f460f
MS_JGB_2018-04-01_S205.flac:8ea56b8e5379cfc28c6043893eb1af66
MS_JGB_2018-04-01_S206.flac:27a30a412ae9b76d9f8667cc1572f469
MS_JGB_2018-04-01_S207.flac:1d3ee8a3636f8256b43569ed3e89211a

Comments
Date User Comment
etreedb.org
For administrative requests email contact@etreedb.org
This website written by Tom H Anderson and maintained by the etreedb.org community.

Cached: Fri, 24 May 2024 21:37:10 EDT