Railroad Earth 01/27/22
The Orange Peel, Asheville, NC
Source # 155586
Entered by Mark Goldey
Checksums ffp
Disc Counts 0 / 0
Media Size Compressed: 818.04 MB (857780950 bytes)
Uncompressed: 1.6 GB (1723294772 bytes)
Date Circulated
Date Added
01/28/2022
02/04/2022
Download Text | Download Zip
Other Sources
Source Summary
Source: Schoeps CCM4V's>Lunatec V2>Sound Devices 722 (24/44.1) FOB/DFC/KFC/ZFC/ADA/AARP 45' From Stage, 8' High
DSP: Sound Devices 722>Sound Forge 10.0>CD Wave>flac(16)
ID3 Tagged In Foobar 2000
Recorded By: Z-Man
Railroad Earth
The Orange Peel
Asheville, North Carolina
1/27/2022

Source: Schoeps CCM4V's>Lunatec V2>Sound Devices 722 (24/44.1)
FOB/DFC/KFC/ZFC/ADA/AARP 45' From Stage, 8' High
DSP: Sound Devices 722>Sound Forge 10.0>CD Wave>flac(16)
ID3 Tagged In Foobar 2000
Recorded By: Z-Man
Seeded By: Z-Man
A Team Dirty South Recording

Disc I 1st Set

01 Hunting Song >
02 Bread And Water >
03 Like A Buddha
04 Lordy Lordy
05 The Good Life >
06 Mountain Time
07 JSYK

Disc II 2nd Set

01 Walk Beside Me >
02 Chasin' A Rainbow
03 Been Down This Road
04 Colorado
05 Lone Croft Farewell >
06 Hangtown Ball

Disc III 2nd Set Con't

01 Any Road Will Take you There
02 Warhead Boogie >
03 New Speedway Boogie
Encore:
04 Thanks
05 Bringin' My Baby Back Home
06 All For The Song

Todd Sheaffer - Guitar And vocals
Tim Carbone - Fiddle And Vocals
John Skehan - Mandolin And Vocals
Andrew Altman - Bass And Vocals
Carey Harmon - Drums And vocals
Mike Robinson - Pedal Steel Guitar, Banjo, Guitar, And Vocals
Matt Slocum - Keyboards

length expanded size cdr WAVE problems fmt ratio filename
12:31.24 132532892 B --- -- ---xx flac 0.5121 railroad2022-01-27d01t01.flac
4:09.74 44097692 B --- -- ---xx flac 0.5099 railroad2022-01-27d01t02.flac
15:52.08 167951660 B --- -- ---xx flac 0.5325 railroad2022-01-27d01t03.flac
4:25.53 46870700 B --- -- ---xx flac 0.5002 railroad2022-01-27d01t04.flac
5:50.72 61909388 B --- -- ---xx flac 0.4931 railroad2022-01-27d01t05.flac
12:04.13 127744220 B --- -- ---xx flac 0.4160 railroad2022-01-27d01t06.flac
8:29.54 89914652 B --- -- ---xx flac 0.5154 railroad2022-01-27d01t07.flac
7:57.73 84314540 B --- -- ---xx flac 0.5036 railroad2022-01-27d02t01.flac
10:35.20 112061084 B --- -- ---xx flac 0.5165 railroad2022-01-27d02t02.flac
5:04.25 53684444 B --- -- ---xx flac 0.4522 railroad2022-01-27d02t03.flac
11:45.59 124500812 B --- -- ---xx flac 0.5238 railroad2022-01-27d02t04.flac
5:57.24 63031292 B --- -- ---xx flac 0.5168 railroad2022-01-27d02t05.flac
14:20.26 151765196 B --- -- ---xx flac 0.4879 railroad2022-01-27d02t06.flac
4:47.49 50742092 B --- -- ---xx flac 0.4838 railroad2022-01-27d03t01.flac
16:26.29 173998652 B --- -- ---xx flac 0.5296 railroad2022-01-27d03t02.flac
9:13.17 97589228 B --- -- ---xx flac 0.5157 railroad2022-01-27d03t03.flac
0:27.55 4892204 B --- -- ---xx flac 0.3573 railroad2022-01-27d03t04.flac
5:37.44 59550332 B --- -- ---xx flac 0.5196 railroad2022-01-27d03t05.flac
7:11.49 76143692 B --- -- ---xx flac 0.3724 railroad2022-01-27d03t06.flac
162:49.18 1723294772 B 0.4978 (19 files)
ffp
railroad2022-01-27d01t01.flac:e4243e650ae368cde3b05bd89e81bb17
railroad2022-01-27d01t02.flac:0d2bd7180db3f467a09daa4f97885c86
railroad2022-01-27d01t03.flac:9ff15fa010374a76a5757956b3928e4e
railroad2022-01-27d01t04.flac:aa86a2b61201502e6379800154341535
railroad2022-01-27d01t05.flac:17b3e3b127f0cb86201a2a7c9c80c4ce
railroad2022-01-27d01t06.flac:3df90b7b9fb0e1342c1dff37e491e23f
railroad2022-01-27d01t07.flac:351b2cab5b86551abb6beb18b42ef714
railroad2022-01-27d02t01.flac:b106b54fd78b359482fb4525b8849cbb
railroad2022-01-27d02t02.flac:d0058c2a2565accaab00e0958d70027f
railroad2022-01-27d02t03.flac:14dfa7d500e58a8cc91cdc8c6c50b74c
railroad2022-01-27d02t04.flac:af4e2437c4f5ac13f26c66a970fdb13f
railroad2022-01-27d02t05.flac:c3a04b12bee4fea58f1a0ea3f8ea3c22
railroad2022-01-27d02t06.flac:ab88a47dcc0cea006e39107bb383ce7a
railroad2022-01-27d03t01.flac:77fe609a698eb12fadde5023117a8821
railroad2022-01-27d03t02.flac:c8d46404f0be78cc54d236dd938aaf90
railroad2022-01-27d03t03.flac:14cab22abcd842870022537310b8157b
railroad2022-01-27d03t04.flac:cca701b47e198d6a656c8d45d963109e
railroad2022-01-27d03t05.flac:bf4e363880cc693a6984b727453b580e
railroad2022-01-27d03t06.flac:3caa023d404031a8b4923c877c94b83f

Comments
Date User Comment
etreedb.org
For administrative requests email contact@etreedb.org
This website written by Tom H Anderson and maintained by the etreedb.org community.

Cached: Sat, 25 Jun 2022 03:46:04 EDT