Yonder Mountain String Band 03/18/22
The Variety Playhouse, Atlanta, GA
Source # 156103
Entered by Mark Goldey
Checksums ffp , md5
Disc Counts 0 / 0
Media Size Compressed: 748.95 MB (785331291 bytes)
Uncompressed: 1.55 GB (1660978972 bytes)
Date Circulated
Date Added
03/20/2022
03/20/2022
Download Text | Download Zip

Other Sources
Source Summary
Source: AKG c480b/ck63 (pos, dfc, just fob, 8')>V3 (24/96)>sd722
Transfer: firewire>wavelab 6.10> iZotope RX 7 (downsample & dither)>CDWav (splits)>FLACFrontend level 6>foobar2000 (tagging)
Yonder Mountain String Band
2022-03-18
The Variety Playhouse, Atlanta, Ga.

Source: AKG c480b/ck63 (pos, dfc, just fob, 8')>V3 (24/96)>sd722
Transfer: firewire>wavelab 6.10> iZotope RX 7 (downsample & dither)>CDWav (splits)>FLACFrontend level 6>foobar2000 (tagging)
taped and transferred by John Barren
A Team Dirty South Recording
Home Team

Set 1
01. greetings
02. Part I (Lord Only Knows)>
03. Boatman
04. I'm Lost
05. Rambler's Anthem
06. banter
07. Small House
08. Winds of Wyoming
09. Left Me in a Hole
10. All Aboard
Set 2
01. Don't Let Your Deal Go Down
02. Annalee
03. Out of the Pan>
04. Into the Fire
05. banter
06. California Cotton Fields
07. Sidewalk Stars
08. banter
09. 45 Miles
10. Up This Hill
11. Change of Heart
12. Idaho
13. Half Moon Rising
14. Little Lover
15. Two Hits and the Joint Turned Brown>
16. Girlfriend Is Better>
17. I Need to Know
encore break
18. Spanish Harlem Incident
19. Back Up and Push

Yonder Mountain String Band
Adam Aijala - guitar, vocals
Ben Kaufmann - upright, electric bass, vocals
Allie Kral - fiddle, vocals
Dave Johnston - banjo, vocals
Nick Piccininni - mandolin, fiddle, banjo, vocals

* The bulk of the encore break was deleted, then the beginning and end crossfaded. No banter or music was deleted.

Shntool 3.0.4
    length     expanded size    cdr  WAVE problems  fmt   ratio  filename
    length     expanded size    cdr  WAVE problems  fmt   ratio  filename
     1:23.22       14692988 B   ---   --   ---xx   flac  0.3512  ymsb2022-03-18s1t01.flac
     2:45.56       29237756 B   ---   --   ---xx   flac  0.4915  ymsb2022-03-18s1t02.flac
     6:53.57       72987308 B   ---   --   ---xx   flac  0.5020  ymsb2022-03-18s1t03.flac
     5:04.02       53630348 B   ---   --   ---xx   flac  0.4615  ymsb2022-03-18s1t04.flac
     3:35.72       38095388 B   ---   --   ---xx   flac  0.4879  ymsb2022-03-18s1t05.flac
     1:07.55       11948204 B   ---   --   ---xx   flac  0.3779  ymsb2022-03-18s1t06.flac
     4:11.20       44323484 B   ---   --   ---xx   flac  0.4646  ymsb2022-03-18s1t07.flac
     9:39.16      102173276 B   ---   --   ---xx   flac  0.4958  ymsb2022-03-18s1t08.flac
     7:18.30       77333804 B   ---   --   ---xx   flac  0.4670  ymsb2022-03-18s1t09.flac
    17:20.50      183573644 B   ---   --   ---xx   flac  0.4710  ymsb2022-03-18s1t10.flac
     3:50.14       40604972 B   ---   --   ---xx   flac  0.4528  ymsb2022-03-18s2t01.flac
     5:03.69       53611532 B   ---   --   ---xx   flac  0.4509  ymsb2022-03-18s2t02.flac
     2:17.46       24275036 B   ---   --   ---xx   flac  0.4672  ymsb2022-03-18s2t03.flac
     2:44.53       29054300 B   ---   --   ---xx   flac  0.5080  ymsb2022-03-18s2t04.flac
     1:05.66       11621276 B   ---   --   ---xx   flac  0.3819  ymsb2022-03-18s2t05.flac
     4:44.56       50229356 B   ---   --   ---xx   flac  0.4577  ymsb2022-03-18s2t06.flac
     9:35.25      101488844 B   ---   --   ---xx   flac  0.4732  ymsb2022-03-18s2t07.flac
     1:38.26       17348396 B   ---   --   ---xx   flac  0.3458  ymsb2022-03-18s2t08.flac
     3:29.53       36992300 B   ---   --   ---xx   flac  0.4656  ymsb2022-03-18s2t09.flac
     4:10.37       44187068 B   ---   --   ---xx   flac  0.4659  ymsb2022-03-18s2t10.flac
     6:33.10       69348764 B   ---   --   ---xx   flac  0.4669  ymsb2022-03-18s2t11.flac
     3:14.28       34287500 B   ---   --   ---xx   flac  0.4763  ymsb2022-03-18s2t12.flac
     5:24.48       57266540 B   ---   --   ---xx   flac  0.4788  ymsb2022-03-18s2t13.flac
     2:54.37       30780668 B   ---   --   ---xx   flac  0.5140  ymsb2022-03-18s2t14.flac
     9:19.27       98671148 B   ---   --   ---xx   flac  0.4613  ymsb2022-03-18s2t15.flac
    16:57.26      179459996 B   ---   --   ---xx   flac  0.4786  ymsb2022-03-18s2t16.flac
     5:19.23       56325740 B   ---   --   ---xx   flac  0.5263  ymsb2022-03-18s2t17.flac
     5:04.74       53799692 B   ---   --   ---xx   flac  0.4608  ymsb2022-03-18s2t18.flac
     4:07.25       43629644 B   ---   --   ---xx   flac  0.4984  ymsb2022-03-18s2t19.flac
   156:55.73     1660978972 B                            0.4728  (29 files)

ffp
ymsb2022-03-18s1t01.flac:d640fb9dc09c0edf5bf6c34b2c80e751
ymsb2022-03-18s1t02.flac:de347759cdcaa966ad7880e82ad72f6e
ymsb2022-03-18s1t03.flac:4f6e89ca6acc0530e12fb9286f1c0210
ymsb2022-03-18s1t04.flac:5e55a702cbedebd749ed36504e886c2d
ymsb2022-03-18s1t05.flac:38b45dea0bad0610dd2379bb166efeb5
ymsb2022-03-18s1t06.flac:4a86fc9ddbbab08ffdd8e38263f0366e
ymsb2022-03-18s1t07.flac:55c0b15e1c7fa6e227e554a6ff6d0a0d
ymsb2022-03-18s1t08.flac:c417e70bd6d79a250f593749102d297e
ymsb2022-03-18s1t09.flac:97fcfd78a833d768465bea6fb7e236a8
ymsb2022-03-18s1t10.flac:bb9e88ed9eac89cda709db91c195cd06
ymsb2022-03-18s2t01.flac:ddfc613b7f6cc8ae21b86f894dcbf16c
ymsb2022-03-18s2t02.flac:9ab682c7955afe86ce09e4a9ae517493
ymsb2022-03-18s2t03.flac:01e30c94aaa4afce635c6de47e09abc9
ymsb2022-03-18s2t04.flac:5b55a8231be1a62a7f5cdf2e53025013
ymsb2022-03-18s2t05.flac:ceff52f4f0540941b93ad3b00909069b
ymsb2022-03-18s2t06.flac:26b78768f0379117cc13c7f54d799972
ymsb2022-03-18s2t07.flac:30c558df7910af5b4f9d220e199b24d2
ymsb2022-03-18s2t08.flac:4e87124d8980776cfb7d0ebaaec5f59f
ymsb2022-03-18s2t09.flac:58a98a483bc7d90d4896d3a6e33168c0
ymsb2022-03-18s2t10.flac:157d6f143084d19b87124578b778b2d5
ymsb2022-03-18s2t11.flac:78ff7acb914146290716ea3ee4a37f49
ymsb2022-03-18s2t12.flac:ce7b8517e64c71263ae5f45e8393263e
ymsb2022-03-18s2t13.flac:5b2a35fa528d841ba6b1ee9d8de886c2
ymsb2022-03-18s2t14.flac:1d1813d545007851675c010934891b67
ymsb2022-03-18s2t15.flac:667ced15c6b1e43bc212ae4e3392c734
ymsb2022-03-18s2t16.flac:fb2467ae15edad30fe2e73e46554227a
ymsb2022-03-18s2t17.flac:a8596fae39bc2f00ea79215d36f9ed47
ymsb2022-03-18s2t18.flac:68c24c02c15cdec9ff9929e48fd6855f
ymsb2022-03-18s2t19.flac:14b8e5bbc914300e1a2cdddc953faf3f

md5
f6720236eccb90cbec406365f5582a3c *ymsb2022-03-18s1t01.flac
6e69e3ce1ddbba3d2732fac63d2cf702 *ymsb2022-03-18s1t02.flac
dcd8a0d5c36b725c974c87c60a89eb9d *ymsb2022-03-18s1t03.flac
a6de24ec91b1e1754897ccfc9177accb *ymsb2022-03-18s1t04.flac
888bd1a8634eb769edb85f874b8dff7d *ymsb2022-03-18s1t05.flac
08aa46d3526cfb8a988cd83e040679a4 *ymsb2022-03-18s1t06.flac
030689137ca99e3edb503b0f7cb518ab *ymsb2022-03-18s1t07.flac
14402525faa33cd11dcab11b29350f30 *ymsb2022-03-18s1t08.flac
58930bf85fc6c32d8fd353ca5deca694 *ymsb2022-03-18s1t09.flac
0b306a081e7b20961f3c7fd51b787cc0 *ymsb2022-03-18s1t10.flac
8170eb8e9b7c2e4c8fe6e597c80c580f *ymsb2022-03-18s2t01.flac
3edcb62ff5f1cc5b305742d436df9155 *ymsb2022-03-18s2t02.flac
b69530e2fd1088c3f109862ae880a00e *ymsb2022-03-18s2t03.flac
303ea2fb9c807f348c3d36f451ed6508 *ymsb2022-03-18s2t04.flac
43c987cb94b45d4b8cf2675cd1284c4d *ymsb2022-03-18s2t05.flac
1fbcebf0d7a47b94610354c294623e8d *ymsb2022-03-18s2t06.flac
2d7e7fc90f232c36134fbac2ffcc5297 *ymsb2022-03-18s2t07.flac
c76249f117b0e34140ec23bffe692823 *ymsb2022-03-18s2t08.flac
a17f35d24fe6b27d34f7fc65e1417804 *ymsb2022-03-18s2t09.flac
461c6e78d687d3913ec8d05a02d78f99 *ymsb2022-03-18s2t10.flac
ee7eae6e2d9a35c5fbe02139f1c61dbb *ymsb2022-03-18s2t11.flac
c4003b1d45970d858331ae35d3e62f06 *ymsb2022-03-18s2t12.flac
2e73f3341f66a10d08f066194ddfb89d *ymsb2022-03-18s2t13.flac
8781453dd8764cdef4ee6df2c22ef4f6 *ymsb2022-03-18s2t14.flac
5e14fd5c2541333266f445dbb4f69168 *ymsb2022-03-18s2t15.flac
84323312766aa3561aa6139afb404145 *ymsb2022-03-18s2t16.flac
3429dab062a0139437664b42f07aa274 *ymsb2022-03-18s2t17.flac
345b678d919e3460b7c13c43fdaf6323 *ymsb2022-03-18s2t18.flac
fb8127436da62993bfb4be601968e4dd *ymsb2022-03-18s2t19.flac

Comments
Date User Comment
etreedb.org
For administrative requests email contact@etreedb.org
This website written by Tom H Anderson and maintained by the etreedb.org community.

Cached: Tue, 9 Aug 2022 19:15:23 EDT