Steep Canyon Rangers 04/14/22
The Variety Playhouse, Atlanta, GA
Source # 156578
Entered by ziko
Checksums md5 , ffp
Disc Counts 0 / 0
Media Size
Uncompressed: 1.02 GB (1094532304 bytes)
Date Circulated
Date Added
04/25/2022
04/26/2022
Download Text | Download Zip

Other Sources
Source Summary
Source: AKG c480b/ck63 (pos, dfc, just fob, 8')>V3 (24/96)>sd722 Transfer: firewire>wavelab 6.10> iZotope RX 7 (downsample & dither)>CDWav (splits)>FLACFrontend level 6>foobar2000 (tagging)
Steep Canyon Rangeers
2022-04-14
The Variety Playhouse, Atlanta, Ga.

Source: AKG c480b/ck63 (pos, dfc, just fob, 8')>V3 (24/96)>sd722
Transfer: firewire>wavelab 6.10> iZotope RX 7 (downsample & dither)>CDWav (splits)>FLACFrontend level 6>foobar2000 (tagging)
taped and transferred by John Barren
A Team Dirty South Recording
Home Team

01. greetings
02. Radio>
03. Blow Me Away
04. Can't Get Home
05. Everything You Know^>
06. Take the Wheel
07. Graveyard Fields
08. Afterglow^
09. Every River>
10. Tell the Ones I Love> Chuck in the Bush> Tell the Ones I Love
11. Easy to Love
12. Stand and Deliver
13. Honey on My Tongue%
14. bringing back Mimi Naja
15. I Lost It$
16. Knob Creek
17. In the Next Life>
18. Take My Mind^
19. encore break & intros
20. Sunny Days

^ w/ Warren Givens - electric guitar
% w/ Warren Givens - accordian
$ w/ Mimi Naja acoustic guitar, vocals

Mike Ashworth - drums
Mike Guggino - mandolin, vocals
Woody Platt - acoustic guitar, vocals
Nicky Sanders - fiddle, vocals
Graham Sharp - banjo, vocals
Larry Smith - acoustic bass

Shntool 3.0.4
    length     expanded size    cdr  WAVE problems  fmt   ratio  filename
     0:28.27        5002748 B   ---   --   ---xx   flac  0.4300  scr2022-04-14t01.flac
     3:34.11       37775516 B   ---   --   ---xx   flac  0.4904  scr2022-04-14t02.flac
     5:14.25       55448444 B   ---   --   ---xx   flac  0.4880  scr2022-04-14t03.flac
     7:50.73       83079740 B   ---   --   ---xx   flac  0.4564  scr2022-04-14t04.flac
     4:38.22       49090988 B   ---   --   ---xx   flac  0.4715  scr2022-04-14t05.flac
     5:46.57       61168508 B   ---   --   ---xx   flac  0.5094  scr2022-04-14t06.flac
     3:54.11       41303516 B   ---   --   ---xx   flac  0.4837  scr2022-04-14t07.flac
     5:51.41       62012876 B   ---   --   ---xx   flac  0.4843  scr2022-04-14t08.flac
     4:15.45       45087884 B   ---   --   ---xx   flac  0.5012  scr2022-04-14t09.flac
     9:08.10       96690764 B   ---   --   ---xx   flac  0.4659  scr2022-04-14t10.flac
     4:44.14       50130572 B   ---   --   ---xx   flac  0.4624  scr2022-04-14t11.flac
     7:46.63       82350620 B   ---   --   ---xx   flac  0.4809  scr2022-04-14t12.flac
     4:53.70       51849884 B   ---   --   ---xx   flac  0.3876  scr2022-04-14t13.flac
     1:13.67       13034828 B   ---   --   ---xx   flac  0.3640  scr2022-04-14t14.flac
     4:31.55       47933804 B   ---   --   ---xx   flac  0.4375  scr2022-04-14t15.flac
     9:24.56       99621356 B   ---   --   ---xx   flac  0.4066  scr2022-04-14t16.flac
     4:57.14       52423772 B   ---   --   ---xx   flac  0.4612  scr2022-04-14t17.flac
     5:52.18       62135180 B   ---   --   ---xx   flac  0.5180  scr2022-04-14t18.flac
     1:12.60       12841964 B   ---   --   ---xx   flac  0.5077  scr2022-04-14t19.flac
     8:04.73       85549340 B   ---   --   ---xx   flac  0.4605  scr2022-04-14t20.flac
   103:24.62     1094532304 B                            0.4650  (20 files)


md5
f774ab2c6409b79cab095d4ea5c49c01 *scr2022-04-14t01.flac
31f3f5e0c0f94af3cc761b46a9150e54 *scr2022-04-14t02.flac
c9ebb2e71a01db01fd9ec7c75451d460 *scr2022-04-14t03.flac
91b425fc331c5b03356ddaf2d04fe1af *scr2022-04-14t04.flac
e8ddf6b1fa2e7456454c36fa1386a204 *scr2022-04-14t05.flac
04cdaa6e0655935728e4e61366b62a62 *scr2022-04-14t06.flac
43a1fc3bbd83900cb91c1be88281677a *scr2022-04-14t07.flac
124a143af8d05beed2bc28cf31243ec6 *scr2022-04-14t08.flac
e580df0cc77deb6c5b01d6b6ce8cd52e *scr2022-04-14t09.flac
f7f9052a1c774fadcfb402b66218eee3 *scr2022-04-14t10.flac
bc0ace11cd5bb1af7aab2eea200ca220 *scr2022-04-14t11.flac
f1839bd2a29177a024edfd638f569713 *scr2022-04-14t12.flac
7cdd95aa0741d4f3d23994cc5b8642a2 *scr2022-04-14t13.flac
a58aa7433876ef262e0fd6da9a887d00 *scr2022-04-14t14.flac
09fd9ef06e463629df93eee014a634e9 *scr2022-04-14t15.flac
fa25993150867cddf8528b788b03291f *scr2022-04-14t16.flac
e0212fd78e720357ef6f28ac663d38c2 *scr2022-04-14t17.flac
504ed5ee7d152b3d1161143299fd0dfe *scr2022-04-14t18.flac
af25f6683bf3d13d994cacb43ed8151c *scr2022-04-14t19.flac
fc1e2ed3736c241d306302bb18522157 *scr2022-04-14t20.flac
ffp
scr2022-04-14t01.flac:1419023d65e8defaa21f2d7ee771423a
scr2022-04-14t02.flac:79c8809c0f836d88db8222f802f84ed1
scr2022-04-14t03.flac:0b29e1afad9d8869cfd8ecd7972f6892
scr2022-04-14t04.flac:beb49a4f0ad2ccf2e9a5f5e6a5419ffc
scr2022-04-14t05.flac:1de38c9e70208398da708a883fddd5c3
scr2022-04-14t06.flac:cdb8d13aaa6a800810b54c3acafdd8df
scr2022-04-14t07.flac:fc30fcf0780a4f72958a904f1b1524ea
scr2022-04-14t08.flac:68c665ac9fddf560abb79692fcdfbd6d
scr2022-04-14t09.flac:3996a5570d1c3dbeba24d8ddd40632b8
scr2022-04-14t10.flac:d6c27d585bd1c07f52b4970986aa9cb6
scr2022-04-14t11.flac:0d39fee7dc79327687096573d4533c45
scr2022-04-14t12.flac:a785ba7991695aec38b3ba05c1a1eea1
scr2022-04-14t13.flac:ce181134d2a0dcd20e683095d5518c7e
scr2022-04-14t14.flac:09ae972f016b8eb12e826f6949860bed
scr2022-04-14t15.flac:b12f4dca6411bd5400229f569472a36e
scr2022-04-14t16.flac:13e82aa6b20b67188aae17fd4eadc03b
scr2022-04-14t17.flac:1c3d46b963bbf23f6df778beb81181a5
scr2022-04-14t18.flac:920c005682110544623fdc188ce4a606
scr2022-04-14t19.flac:30d5b9919b38d4646b4f2ca0fe54b1da
scr2022-04-14t20.flac:2a8e886514d665db8eb96a9163f67a08

Comments
Date User Comment
etreedb.org
For administrative requests email contact@etreedb.org
This website written by Tom H Anderson and maintained by the etreedb.org community.

Cached: Tue, 4 Oct 2022 19:05:22 EDT