John Bell 12/20/03
Asheville Civic Center, Asheville, NC
Source # 156585
Entered by Matt Vernon
Checksums ffp
Disc Counts 0 / 0
Media Size
Date Circulated
Date Added
??/??/????
04/27/2022
Download Text | Download Zip
Other Sources
Source Summary
mk41(fob) > kc5 > cmc6 > m148 > ad1000 > da-p1 Taped and tranferred by Will Boswell
John Bell

Warren Haynes Xmas Jam
Asheville Civic Center
Asheville, NC
20 December 2003

Source: mk41>kc5>cmc6>m148>ad1000>da-p1
Location: fob(~40')/dfc/din(17cm/90ยบ)
Conversion: da-p1>delta dio 24/96>Sound Forge 6.0 (record)>
CD Wave>Sound Forge 6.0 (fades)>Flac Frontend

Taped, Converted, & Seeded by wboswell@taperssection.com.

01: Ribs & Whiskey
02: Silent Night
03: Time Waits
04: Papa's Home (1)
05: Travelin' Light (2)

(1) w/ Dave Schools on bass
(2) w/Dave Schools on bass, Warren Haynes on guitar, Todd Nance on drums

shntool:
    length     expanded size   cdr  WAVE problems filename
     5:27.68       57842780    ---   --   ---xx   jb2003-12-20d1t01.flac
     3:17.55       34880204    ---   --   ---xx   jb2003-12-20d1t02.flac
     4:19.01       45689996    ---   --   ---xx   jb2003-12-20d1t03.flac
     8:51.04       93677852    ---   --   ---xx   jb2003-12-20d1t04.flac
     7:10.71       76019036    ---   --   ---xx   jb2003-12-20d1t05.flac
    29:06.49      308109868 B                     (totals for 5 files, 0.4907 overall compression ratio)

ffp
jb2003-12-20d1t01.flac:d076c6400f342cc52ce2594d603fe0e4
jb2003-12-20d1t02.flac:908c2e93157b14777dc1dbb9680be513
jb2003-12-20d1t03.flac:160b342c9e583de69bee7e642be912bb
jb2003-12-20d1t04.flac:067f898e180ab36d0d53e196a252dce6
jb2003-12-20d1t05.flac:961038df044d0bf8bb69a5672d88e242

Comments
Date User Comment
etreedb.org
For administrative requests email contact@etreedb.org
This website written by Tom H Anderson and maintained by the etreedb.org community.

Cached: Sun, 2 Oct 2022 02:52:04 EDT