Les Claypool's Duo de Twang 02/21/15
WinterWondergrass, Avon, CO
Source # 156838
Entered by Mark Goldey
Checksums ffp
Disc Counts 0 / 0
Media Size Compressed: 305.34 MB (320176895 bytes)
Uncompressed: 710.2 MB (744695472 bytes)
Date Circulated
Date Added
03/27/2015
05/20/2022
Download Text | Download Zip
Other Sources
Source Summary
AKG C568 EB's -> Edirol R-4 w/Oade Bros. Basic Mod. -> Audacity 2.0 -> CDWave -> FLAC; Recorded by Brain
Les Claypool's Duo de Twang
02-21-2015
Winter Wonder Grass Festival,
Avon, CO

Source: AKG C568 EB's -> Edirol R-4 w/Oade Bros. Basic Mod.
Transfer: Edirol R-4 -> Audacity 2.0 -> CDWave -> FLAC
Recorded by Brain

01 Wynona's Big Brown Beaver
02 Amos Moses
03 Red State Girl
04 The Bridge Came Tumblin Down
05 Buzzards of Green Hill
06 A Boy Named Sue*
07 Battle of New Orleans*
08 Big Rock Candy Mountain*
09 Four Foot Shack
10 Booneville Stomp
11 Dee's Diner $
12 Jerry Was A Race Car Driver


* w/Cage Claypool on vocals & banjo
$ w/Sam Bush on mandolin


    length     expanded size    cdr  WAVE problems  fmt   ratio  filename
     8:08.43       86184380 B   ---   --   ---xx   flac  0.4448  LCDDT2015-02-2102.flac
     6:17.39       66594572 B   ---   --   ---xx   flac  0.4502  LCDDT2015-02-2103.flac
     5:48.04       61396652 B   ---   --   ---xx   flac  0.4321  LCDDT2015-02-2104.flac
     6:26.01       68092796 B   ---   --   ---xx   flac  0.4153  LCDDT2015-02-2105.flac
     4:56.43       52315580 B   ---   --   ---xx   flac  0.4197  LCDDT2015-02-2106.flac
     5:43.70       60669884 B   ---   --   ---xx   flac  0.4328  LCDDT2015-02-2107.flac
     5:47.27       61274348 B   ---   --   ---xx   flac  0.4225  LCDDT2015-02-2108.flac
     4:04.47       43152188 B   ---   --   ---xx   flac  0.4343  LCDDT2015-02-2109.flac
     2:01.61       21487916 B   ---   --   ---xx   flac  0.4078  LCDDT2015-02-2110.flac
     6:12.58       65757260 B   ---   --   ---xx   flac  0.4186  LCDDT2015-02-2111.flac
    10:01.68      106176380 B   ---   --   ---xx   flac  0.4281  LCDDT2015-02-2112.flac
     4:52.36       51593516 B   ---   --   ---xx   flac  0.4355  LCDDT2015-02-2113.flac
    70:21.47      744695472 B                            0.4299  (12 files)



ffp
LCDDT2015-02-2102.flac:9c32cd37bb5f5a32ae6c87d880ec4cdf
LCDDT2015-02-2103.flac:e22f7799939cc69a56ad8b2d0b181be0
LCDDT2015-02-2104.flac:462d4f6fd8d251ea3b2019f353f2612d
LCDDT2015-02-2105.flac:70e012fe2ace663f70a9948911c958b3
LCDDT2015-02-2106.flac:ab51c8d171f6d9926c9972a5288554ce
LCDDT2015-02-2107.flac:9434efe07c2e0333cf9d7bac99880ada
LCDDT2015-02-2108.flac:895b2c2046bbfd63e4b3cc60a23eaaa9
LCDDT2015-02-2109.flac:f9b56235ae43fced117974fe9e7dfeca
LCDDT2015-02-2110.flac:156d73c8db125563f7664986be1672c1
LCDDT2015-02-2111.flac:5d225ad1175cb59b7073ba407771a98c
LCDDT2015-02-2112.flac:70afd75d18b8191e8a2e32305c001221
LCDDT2015-02-2113.flac:fad33d65ff489e1c1162341cb6bdf05c

Comments
Date User Comment
etreedb.org
For administrative requests email contact@etreedb.org
This website written by Tom H Anderson and maintained by the etreedb.org community.

Cached: Sun, 24 Sep 2023 03:31:25 EDT