George Porter Jr. & Runnin' Pardners 08/03/13
A Bear's Picnic, Lycoming County Fairgrounds, Hughesville, PA
Source # 157677
Entered by Mark Goldey
Checksums gprp2013-09-03.md5 , gprp2013-09-03.ffp
Disc Counts 0 / 0
Media Size Compressed: 617.28 MB (647267193 bytes)
Uncompressed: 1.13 GB (1210467044 bytes)
Date Circulated
Date Added
08/26/2022
08/26/2022
Download Text | Download Zip
Other Sources
Source Summary
Source: Sony ECM-MS957 > Zoom H2 > wav 16/44.1 (recorded from front right side of board about 50 feet from the stage, on a 10 feet pole)
Lineage: wav 16/44.1 > iZotope RX 9 Advanced > iZotope Ozone 9 Advanced Maximiser > CD Wave > flac 16
edited and mastered SIRMick
George Porter Jr. and Runnin' Pardners
A Bear's Picnic
Lycoming County Fairgrounds
Hughesville, PA
August 3rd, 2013


Source: Sony ECM-MS957 > Zoom H2 > wav 16/44.1 (recorded from front right side of board about 50 feet from the stage, on a 10 feet pole)
Lineage: wav 16/44.1 > iZotope RX 9 Advanced > iZotope Ozone 9 Advanced Maximiser > CD Wave > flac 16


Set I

01   J Black Attack!
02   6v6 LA
03   No More Okey Doke >
04   I Feel Like Funkin' It Up/Iko Iko >
05   Odiferous >
06   Sailin' Shoes >
07   Sneakin' Sally Through The Alley
08   Eyes Of The World >
09   Iron It Out

Set II

01   Out Of The Box >
02   Liver Splash
03   I Need More Time
04   Clebrate >
05    Turn On Your Love Light
06   banter
07   What Cha' Say
08   banter
09   Sing A Happy Song >
10   I Get High



George Porter Jr. - bass, vocals
Michael Lemmler -  keyboards, vocals
Brint Anderson - guitar, vocals
Terrence Houston - drums, vocals


recorded, edited and mastered
SIRMick
August 2022


shntool output:

    length     expanded size    cdr  WAVE problems  fmt   ratio  filename
     6:56.69       73544732 B   ---   --   ---xx   flac  0.5452  gprp2013-08-03s1t01.flac
     7:15.71       76901036 B   ---   --   ---xx   flac  0.5791  gprp2013-08-03s1t02.flac
     9:40.29      102380252 B   ---   --   ---xx   flac  0.5565  gprp2013-08-03s1t03.flac
     6:12.32       65696108 B   ---   --   ---xx   flac  0.5296  gprp2013-08-03s1t04.flac
     4:32.47       48091388 B   ---   --   ---xx   flac  0.5381  gprp2013-08-03s1t05.flac
     3:32.00       37396844 B   ---   --   ---xx   flac  0.5369  gprp2013-08-03s1t06.flac
     7:00.02       74092748 B   ---   --   ---xx   flac  0.5441  gprp2013-08-03s1t07.flac
     9:39.24      102192092 B   ---   --   ---xx   flac  0.5222  gprp2013-08-03s1t08.flac
     4:34.52       48455948 B   ---   --   ---xx   flac  0.5309  gprp2013-08-03s1t09.flac
     4:28.03       47282300 B   ---   --   ---xx   flac  0.5375  gprp2013-08-03s2t01.flac
     5:20.74       56622092 B   ---   --   ---xx   flac  0.5302  gprp2013-08-03s2t02.flac
     8:21.14       88409372 B   ---   --   ---xx   flac  0.5250  gprp2013-08-03s2t03.flac
     5:44.38       60771020 B   ---   --   ---xx   flac  0.5262  gprp2013-08-03s2t04.flac
     9:59.72      105832988 B   ---   --   ---xx   flac  0.5224  gprp2013-08-03s2t05.flac
     1:17.71       13749836 B   ---   --   ---xx   flac  0.4093  gprp2013-08-03s2t06.flac
     6:12.33       65698460 B   ---   --   ---xx   flac  0.5644  gprp2013-08-03s2t07.flac
     2:28.44       26210732 B   ---   --   ---xx   flac  0.3735  gprp2013-08-03s2t08.flac
     4:44.47       50208188 B   ---   --   ---xx   flac  0.5277  gprp2013-08-03s2t09.flac
     6:19.32       66930908 B   ---   --   ---xx   flac  0.5587  gprp2013-08-03s2t10.flac
   114:22.04     1210467044 B                            0.5347  (19 files)

flac fingerprints:

gprp2013-08-03s1t01.flac:32f07fda34020f0c2ad9b0fdcbaf4b3b
gprp2013-08-03s1t02.flac:f60597dbe3abf4fe33b7169111a8421b
gprp2013-08-03s1t03.flac:47b1cd5d7aa180f8e58aea7bfb7cbd50
gprp2013-08-03s1t04.flac:62ea80e13a21d85fcc9e4c20d0383bdf
gprp2013-08-03s1t05.flac:3e627b7d36f88b5aa23df738aa6afa42
gprp2013-08-03s1t06.flac:304a02a2f461586d9cb5fbef32f4d6b3
gprp2013-08-03s1t07.flac:ab84d625fe1813df64c3a57bc6d27288
gprp2013-08-03s1t08.flac:5309750e770e7807c56e7ffb205a23f9
gprp2013-08-03s1t09.flac:da67e42a3b2901f0041357d57b75eaed
gprp2013-08-03s2t01.flac:8d6835f8ca8d4cbdb80ce111e3ad4182
gprp2013-08-03s2t02.flac:8082e7ae6577825b7db37bde96cf8181
gprp2013-08-03s2t03.flac:cb0c55c2b0b95b6b3389810d563ce8e6
gprp2013-08-03s2t04.flac:3f0bc1f9e739010fb71465bd2b7da02c
gprp2013-08-03s2t05.flac:3ba7532eca688a8ec1f1270ce2718d66
gprp2013-08-03s2t06.flac:ed3140cb6ac3e77507fa5a30c90c5fff
gprp2013-08-03s2t07.flac:03ab05402c6b51659adb63e0c27be6ba
gprp2013-08-03s2t08.flac:9f871955df328f13f04bdc5d6ac0b449
gprp2013-08-03s2t09.flac:de5db7127b2062289c400f1558d3076d
gprp2013-08-03s2t10.flac:88379dcf7f2f89d949257e5725fcdc9f

785b0045553cab939fb8a9171bb86b11 *gprp2013-08-03s1t01.flac
3e0ad7e42c28f2a9240a4874a8d4de01 *gprp2013-08-03s1t02.flac
d2bbd95c04d8e0bd74ae35bdd7021e84 *gprp2013-08-03s1t03.flac
d956ab719858ec2c8c0a5bb27c5af966 *gprp2013-08-03s1t04.flac
e68b07e90e8383f25f549eb06913440b *gprp2013-08-03s1t05.flac
91c3b66866287815aa1e3d30c3d8dfa3 *gprp2013-08-03s1t06.flac
443f0f2cf8c394444665891bcff05133 *gprp2013-08-03s1t07.flac
18c414faca3e376c0f7742ccc95a82f6 *gprp2013-08-03s1t08.flac
d93f80a9210580db2aace122f686f8f3 *gprp2013-08-03s1t09.flac
867e5bc16f2c0154c7025fb3a0288309 *gprp2013-08-03s2t01.flac
2469b38581d3b4302302650bc4bb3733 *gprp2013-08-03s2t02.flac
9e376e2c12c8980bcc9669475a144708 *gprp2013-08-03s2t03.flac
fc0c88efb15ec077ff0a12b37352ec7f *gprp2013-08-03s2t04.flac
c8788557206a4cb8ef99c06aa6c184a6 *gprp2013-08-03s2t05.flac
343f98b89e5f5f2f5e4a15a7e8c006f8 *gprp2013-08-03s2t06.flac
8d51c50ac5331884b431a7e44e6f97ce *gprp2013-08-03s2t07.flac
9d5432d59de1dca211fdc98f19b79fc3 *gprp2013-08-03s2t08.flac
88107ad46443898fb852a53d12e97e1c *gprp2013-08-03s2t09.flac
3fa659bc824d182a50ae17977c8bc66e *gprp2013-08-03s2t10.flac
gprp2013-08-03s1t01.flac:32f07fda34020f0c2ad9b0fdcbaf4b3b
gprp2013-08-03s1t02.flac:f60597dbe3abf4fe33b7169111a8421b
gprp2013-08-03s1t03.flac:47b1cd5d7aa180f8e58aea7bfb7cbd50
gprp2013-08-03s1t04.flac:62ea80e13a21d85fcc9e4c20d0383bdf
gprp2013-08-03s1t05.flac:3e627b7d36f88b5aa23df738aa6afa42
gprp2013-08-03s1t06.flac:304a02a2f461586d9cb5fbef32f4d6b3
gprp2013-08-03s1t07.flac:ab84d625fe1813df64c3a57bc6d27288
gprp2013-08-03s1t08.flac:5309750e770e7807c56e7ffb205a23f9
gprp2013-08-03s1t09.flac:da67e42a3b2901f0041357d57b75eaed
gprp2013-08-03s2t01.flac:8d6835f8ca8d4cbdb80ce111e3ad4182
gprp2013-08-03s2t02.flac:8082e7ae6577825b7db37bde96cf8181
gprp2013-08-03s2t03.flac:cb0c55c2b0b95b6b3389810d563ce8e6
gprp2013-08-03s2t04.flac:3f0bc1f9e739010fb71465bd2b7da02c
gprp2013-08-03s2t05.flac:3ba7532eca688a8ec1f1270ce2718d66
gprp2013-08-03s2t06.flac:ed3140cb6ac3e77507fa5a30c90c5fff
gprp2013-08-03s2t07.flac:03ab05402c6b51659adb63e0c27be6ba
gprp2013-08-03s2t08.flac:9f871955df328f13f04bdc5d6ac0b449
gprp2013-08-03s2t09.flac:de5db7127b2062289c400f1558d3076d
gprp2013-08-03s2t10.flac:88379dcf7f2f89d949257e5725fcdc9f

Comments
Date User Comment
etreedb.org
For administrative requests email contact@etreedb.org
This website written by Tom H Anderson and maintained by the etreedb.org community.

Cached: Tue, 6 Dec 2022 09:27:24 EST