moe. 07/06/22
Empire Center, Albany, NY
Source # 161248
Entered by md
Checksums ffp
Disc Counts 0 / 0
Media Size
Uncompressed: 1.82 GB (1959539288 bytes)
Date Circulated
Date Added
07/08/2022
12/24/2022
Source Summary
flac1644 CA-14c -> CA-9200 -> Edirol R-09HR; Soundforge 6.0 -> CD Wave -> FLAC 1.2.1
moe.
2022-07-06
Empire State Plaza
Albany, NY

Source:
CA-14c -> CA-9200 -> Edirol R-09HR
Transfer:
Soundforge 6.0 -> CD Wave -> FLAC 1.2.1

01. Set I:Tuning->
02. Blue Jean Pizza
03. The Road
04. Head
05. So Long
06. Mexico
07. Set II:Intro/Tuning
08. Lazarus-> Jam->
09. George
10. McBain->
11. Starship Trooper Jam->
12. Tubing The River Styx->
13. The Pit->
14. Brent Black
15. Crowd/al.nouncements
16. Enc:Bearsong


    length     expanded size    cdr  WAVE problems  fmt   ratio  filename
     1:01.33       10838060 B   ---   --   ---xx   flac  0.3783  moe2022-07-06t01.flac
     9:20.69       98946332 B   ---   --   ---xx   flac  0.4973  moe2022-07-06t02.flac
    16:44.45      177211484 B   ---   --   ---xx   flac  0.4976  moe2022-07-06t03.flac
    15:09.71      160514636 B   ---   --   ---xx   flac  0.5074  moe2022-07-06t04.flac
    14:41.74      155582492 B   ---   --   ---xx   flac  0.4638  moe2022-07-06t05.flac
    15:34.65      164910524 B   ---   --   ---xx   flac  0.4853  moe2022-07-06t06.flac
     3:04.61       32601116 B   ---   --   ---xx   flac  0.4064  moe2022-07-06t07.flac
    19:16.20      203965484 B   ---   --   ---xx   flac  0.4946  moe2022-07-06t08.flac
    18:32.41      196253276 B   ---   --   ---xx   flac  0.5392  moe2022-07-06t09.flac
    11:41.67      123814028 B   ---   --   ---xx   flac  0.5159  moe2022-07-06t10.flac
     4:39.60       49356764 B   ---   --   ---xx   flac  0.4907  moe2022-07-06t11.flac
     5:41.40       60246524 B   ---   --   ---xx   flac  0.4695  moe2022-07-06t12.flac
    10:27.10      110626364 B   ---   --   ---xx   flac  0.5170  moe2022-07-06t13.flac
    26:47.08      283493660 B   ---   --   ---xx   flac  0.5137  moe2022-07-06t14.flac
     4:38.34       49119212 B   ---   --   ---xx   flac  0.4473  moe2022-07-06t15.flac
     7:45.14       82059332 B   -b-   --   ---xx   flac  0.5438  moe2022-07-06t16.flac
   185:08.37     1959539288 B                            0.5006  (16 files)


ffp
moe2022-07-06t01.flac:1369101a8ca368b5ef320cd321b8231f
moe2022-07-06t02.flac:024eeeb64b336d57a369a70305c2ff7d
moe2022-07-06t03.flac:ce201ea4117707035e782d3e5b0546af
moe2022-07-06t04.flac:9e2b00fac4f3800ffdc019701b1a96c9
moe2022-07-06t05.flac:55a2ad8dca4644dc852814b865d262e9
moe2022-07-06t06.flac:91b66f8a44d4b7e4649aa0528e6fb0d0
moe2022-07-06t07.flac:f6049786d78c1300550611809dbd92e2
moe2022-07-06t08.flac:a38c18a278505d998f965ce9c508b0fb
moe2022-07-06t09.flac:6acd95decf84255b4e2045e7c219244d
moe2022-07-06t10.flac:6cbeb91f398ff5d58ce0a7b694a52621
moe2022-07-06t11.flac:ae5ccfb047eea1638de1f0358f0d01f6
moe2022-07-06t12.flac:b08fb6acf4dce49bc66ce3e79f47d573
moe2022-07-06t13.flac:77ddf0fdf5b7f8fc021216238b0285ea
moe2022-07-06t14.flac:e8be944067203e56527736e0fa622a5c
moe2022-07-06t15.flac:56276864e65de40b9979ce4f80a58df0
moe2022-07-06t16.flac:e17c90e7aca6cb5e8ad69e3ba68cecee

Comments
Other Sources (comments)
flac1648 Nakamichi CM-300... (0) flac2448 Nakamichi CM-300... (0)
Date User Comment
etreedb.org
For administrative requests email contact@etreedb.org
This website written by Tom H Anderson and maintained by the etreedb.org community.

Cached: Thu, 22 Feb 2024 05:03:16 EST