moe. 07/09/22
Shorefront Park, Patchogue, NY
Source # 161252
Entered by md
Checksums ffp
Disc Counts 0 / 0
Media Size
Uncompressed: 689.4 MB (722884104 bytes)
Date Circulated
Date Added
07/13/2022
12/24/2022
Download Text | Download Zip

Other Sources
Source Summary
flac1644 CA-14c -> CA-9200 -> Edirol R-09HR; Soundforge 6.0 -> CD Wave -> FLAC 1.2.1
moe.
2022-07-09
Shorefront Park
Patchogue, NY

Source:
CA-14c -> CA-9200 -> Edirol R-09HR
Transfer:
Soundforge 6.0 -> CD Wave -> FLAC 1.2.1

01. Tuning/Intro
02. Plane Crash
03. LL3
04. Mar De Ma-> Jam->
05. Tailspin
06. Banter
07. NYC
08. Skrunk >
09. In Memory Of Elizabeth Reed


    length     expanded size    cdr  WAVE problems  fmt   ratio  filename
     1:51.23       19634540 B   ---   --   ---xx   flac  0.3913  moe2022-07-09t01.flac
    13:32.67      143394428 B   ---   --   ---xx   flac  0.5011  moe2022-07-09t02.flac
     5:20.42       56546828 B   ---   --   ---xx   flac  0.5046  moe2022-07-09t03.flac
    11:07.54      117785852 B   ---   --   ---xx   flac  0.4881  moe2022-07-09t04.flac
     5:16.44       55845932 B   ---   --   ---xx   flac  0.5168  moe2022-07-09t05.flac
     1:08.52       12117548 B   ---   --   ---xx   flac  0.3641  moe2022-07-09t06.flac
     6:16.11       66352316 B   ---   --   ---xx   flac  0.4804  moe2022-07-09t07.flac
     8:41.21       91953836 B   ---   --   ---xx   flac  0.4886  moe2022-07-09t08.flac
    15:02.60      159252824 B   -b-   --   ---xx   flac  0.5117  moe2022-07-09t09.flac
    68:17.74      722884104 B                            0.4940  (9 files)


ffp
moe2022-07-09t01.flac:8da5dadcc3cd30166723d336142ad3f3
moe2022-07-09t02.flac:09c02a3bc6ad1dd7c55ec904c093a27b
moe2022-07-09t03.flac:825cf468f92a239adcc4a6bb3a36813f
moe2022-07-09t04.flac:7b9bc994885ece0484a41553e3a90211
moe2022-07-09t05.flac:46f6b9d223b1ac17165514c45ce7b960
moe2022-07-09t06.flac:08624d52792c005ce4814234c54fb0c0
moe2022-07-09t07.flac:cb316913009f7170ce224b0571ba2590
moe2022-07-09t08.flac:166f847922e4e7528802cfec4f30b870
moe2022-07-09t09.flac:bf823ee1636d15ac85cdfcde93d26063

Comments
Date User Comment
etreedb.org
For administrative requests email contact@etreedb.org
This website written by Tom H Anderson and maintained by the etreedb.org community.

Cached: Wed, 19 Jun 2024 18:55:24 EDT