Sound Tribe Sector 9 10/12/99
Variety Playhouse, Atlanta, GA
Source # 162823
Entered by md
Checksums all , st5
Disc Counts 0 / 0
Media Size
Uncompressed: 855.36 MB (896914384 bytes)
Date Circulated
Date Added

01/11/2023
Download Text | Download Zip

Other Sources
Source Summary
DAUD
Sound Tribe Sector 9
10/12/99
Variety Playhouse
Atlanta, GA

Source: DAUD

Monkey Music
Bosso Profundo
improv*->
Kaya

Moon Socket
Orbital->
Harmonics
Freq. III

* Lerner on didg


    length     expanded size    cdr  WAVE problems  fmt   ratio  filename
    15:53.66      168264476 B   ---   --   ---xx    shn  0.6520  sts9-1999-10-12d1t01.shn
     9:46.25      103429244 B   ---   --   ---xx    shn  0.7037  sts9-1999-10-12d1t02.shn
     7:00.33       74165660 B   ---   --   ---xx    shn  0.5751  sts9-1999-10-12d1t03.shn
     8:38.35       91457564 B   ---   --   ---xx    shn  0.6353  sts9-1999-10-12d1t04.shn
    17:47.15      188254124 B   ---   --   ---xx    shn  0.6901  sts9-1999-10-12d2t01.shn
     5:40.43       60077180 B   ---   --   ---xx    shn  0.6600  sts9-1999-10-12d2t02.shn
    10:43.46      113533436 B   ---   --   ---xx    shn  0.6090  sts9-1999-10-12d2t03.shn
     9:14.03       97732700 B   ---   --   ---xx    shn  0.6223  sts9-1999-10-12d2t04.shn
    84:44.41      896914384 B                            0.6498  (8 files)


all
2772ffa935ca7b9c4af24c12b5eb2112 *sts9-1999-10-12d1t04.shn
6c2e4565432bd27395aca904524a55ed *sts9-1999-10-12d1t02.shn
6aca8cb3af10d678a9fdfa99ea858744 *sts9-1999-10-12d1t03.shn
05a8fd112c0e06c0bf8befb20cd5f3da *sts9-1999-10-12d1t01.shn
fec4ec5c19c1007b966e7a683ba0e12d *sts9-1999-10-12d2t01.shn
0356826c7e0c05e9ea1ff0d3824d66ee *sts9-1999-10-12d2t02.shn
d74e55f3ec17b8646ea2c306ed5fb348 *sts9-1999-10-12d2t03.shn
2354534a653fab3bb14eab3675ea70ef *sts9-1999-10-12d2t04.shn
st5
4096a1c80170592bc57995dbf7473e18 [shntool] sts9-1999-10-12d1t01.shn
ef4606156b65bc95c1805799b6940f24 [shntool] sts9-1999-10-12d1t02.shn
6d99d682994b053d5acd4d501f8aa17e [shntool] sts9-1999-10-12d1t03.shn
b4f046e2c25694dc3e67e8b9c3dcf9bd [shntool] sts9-1999-10-12d1t04.shn
7dfa3ad930c44daa7113156c36f24620 [shntool] sts9-1999-10-12d2t01.shn
b5edd9b0b2ac0c67bd1ad165eb89ce1f [shntool] sts9-1999-10-12d2t02.shn
5a2bf6ccc5c14a4c993a383cf1c6c7c5 [shntool] sts9-1999-10-12d2t03.shn
577fea200c0658383dbf9d1ef750bc2d [shntool] sts9-1999-10-12d2t04.shn

Comments
Date User Comment
etreedb.org
For administrative requests email contact@etreedb.org
This website written by Tom H Anderson and maintained by the etreedb.org community.

Cached: Thu, 23 May 2024 05:37:01 EDT