Melvin Seals & JGB 01/29/23
So Many Roads Museum and Brewery, Denver, CO
Source # 163476
Entered by x poordevil
Checksums MS_JGB_2023-01-29.md5 , MS_JGB-2023-01-29.DPA4018C.Hayes.Flac1644
Disc Counts 0 / 0
Media Size Compressed: 832.1 MB (872519208 bytes)
Date Circulated
Date Added
01/31/2023
01/31/2023
Download Text | Download Zip
Other Sources
Source Summary
Flac 1644: DPA 4018c (NOS) > LB > JWmod Tascam DR70
Location: FOB, DFC. Mics on stand ~8.0 feet
Transfer: JWmod Tascam DR70 (24/96) wav -> USB cable -> PC
Editing: Wavelab plugins -> Flac(16/44)
Recorded, edited and Mastered by Patrick H.
  Melvin Seals and JGB
  Jan 29, 2023
  So Many Roads Museum and Brewery
  Denver, CO
  Total Time = 150:19

  DPA 4018c (NOS) > JWmod Tascam DR70

  Location: FOB, DFC. Mics on stand ~8.0 feet.

  Transfer: JWmod Tascam DR70 (24/96) wav ->
  USB cable -> PC

  Editing: Wavelab plugins -> Flac(16/44)

  MD5's and SBE checked and verified.
  01/30/2023

  Recorded, edited and Mastered by Patrick H.

  Set 1
  01 Lets Spend the Night Togethter10:13
  02 Saw Her Standing there 4:24
  03 Run for the Roses 5:55
  04 Get Out of My Life Women 10:00
  05 That's all Right Mama 5:23
  06 Money Honey 8:13
  07 They Love Each Other 10:23
  08 Scarlet Begonnias -> 9:12
  09 Rueben and Cherish 8:15

  Set 2
  01 We Be Jammin 8:11
  02 Waiting for a Miracle 6:58
  03 Gomorrah 8:39
  04 Tough Mama 10:42
  05 Mysterey Train 6:04
  06 Eyes of the World 15:41
  07 Help is on the Way -> 7:39
  08 Shakedown Street 14:19

  Band:
  Melvin Seals Organ
  John Kadlecik Guitar and Vocals
  John-Paul Mclean Bass and Vocal
  Jeremy Hoenig Drums
  Armando - JGB FOH

  Notes: MS played 2 one hour+ sets.
  Strong show. No female singers.
  Well attended Sunday show. Had
  rig in FOB section.

  Crowd noise can be heard though
  mostly between songs.

  Performance: A
  Sound Quality: A-

  Support Live Music!


  shntool
    length     expanded size    cdr  WAVE problems  fmt   ratio  filename
    10:13.73      108304940 B   ---   --   -----    wav  1.0000  MS_JGB_2023-01-29_S101.wav
     4:24.40       46663724 B   ---   --   -----    wav  1.0000  MS_JGB_2023-01-29_S102.wav
     5:55.12       62650268 B   ---   --   -----    wav  1.0000  MS_JGB_2023-01-29_S103.wav
    10:00.53      105964700 B   ---   --   -----    wav  1.0000  MS_JGB_2023-01-29_S104.wav
     5:23.33       57054860 B   ---   --   -----    wav  1.0000  MS_JGB_2023-01-29_S105.wav
     8:13.24       87021692 B   ---   --   -----    wav  1.0000  MS_JGB_2023-01-29_S106.wav
    10:23.09      109918412 B   ---   --   -----    wav  1.0000  MS_JGB_2023-01-29_S107.wav
     9:12.68       97532780 B   ---   --   -----    wav  1.0000  MS_JGB_2023-01-29_S108.wav
     8:15.18       87360380 B   ---   --   -----    wav  1.0000  MS_JGB_2023-01-29_S109.wav
     8:11.32       86687708 B   ---   --   -----    wav  1.0000  MS_JGB_2023-01-29_S201.wav
     6:58.46       73843436 B   ---   --   -----    wav  1.0000  MS_JGB_2023-01-29_S202.wav
     8:39.16       91589276 B   ---   --   -----    wav  1.0000  MS_JGB_2023-01-29_S203.wav
    10:42.16      113286476 B   ---   --   -----    wav  1.0000  MS_JGB_2023-01-29_S204.wav
     6:04.02       64214348 B   ---   --   -----    wav  1.0000  MS_JGB_2023-01-29_S205.wav
    15:41.38      166081820 B   ---   --   -----    wav  1.0000  MS_JGB_2023-01-29_S206.wav
     7:39.63       81115820 B   ---   --   -----    wav  1.0000  MS_JGB_2023-01-29_S207.wav
    14:19.67      151685228 B   ---   --   -----    wav  1.0000  MS_JGB_2023-01-29_S208.wav
   150:19.10     1590975868 B                            1.0000  (17 files)

  md5
9eae3a4a83c1ec3f3ccf7e69dbe6c1a4 *MS_JGB_2023-01-29_S101.flac
e0d15b2f8748bb1942982e6d16c96fc4 *MS_JGB_2023-01-29_S102.flac
0a504e54590fb82730c73475478136c3 *MS_JGB_2023-01-29_S103.flac
180aad57b11c6a757d72cb079bd06543 *MS_JGB_2023-01-29_S104.flac
5e8f771b772c5dde3f5b377db9e3a3bd *MS_JGB_2023-01-29_S105.flac
ddf52432551852fe257a9b38713e00dc *MS_JGB_2023-01-29_S106.flac
63c999deb7e8027837599fc64f7fdb74 *MS_JGB_2023-01-29_S107.flac
9fc23a512284254ceeee7f26078085b9 *MS_JGB_2023-01-29_S108.flac
42872b4dded43502c57089b9ac7df339 *MS_JGB_2023-01-29_S109.flac
c33fcebf72d921736cab35cbdd405233 *MS_JGB_2023-01-29_S201.flac
62b3b97a8a645a364ebd8e4bb6298f50 *MS_JGB_2023-01-29_S202.flac
ead1d72f9e504507d7c1a8266055e638 *MS_JGB_2023-01-29_S203.flac
7902527f14f44211ac3915fff02566c8 *MS_JGB_2023-01-29_S204.flac
b69b7884d88b1adc89b6d107e039b28c *MS_JGB_2023-01-29_S205.flac
ff28c34dbbbbb2847ac9cbf121da7c86 *MS_JGB_2023-01-29_S206.flac
5014328d16da7d53fb3172598385026b *MS_JGB_2023-01-29_S207.flac
3adce0365acc530f007c91374786c9bd *MS_JGB_2023-01-29_S208.flac




9eae3a4a83c1ec3f3ccf7e69dbe6c1a4 *MS_JGB_2023-01-29_S101.flac
e0d15b2f8748bb1942982e6d16c96fc4 *MS_JGB_2023-01-29_S102.flac
0a504e54590fb82730c73475478136c3 *MS_JGB_2023-01-29_S103.flac
180aad57b11c6a757d72cb079bd06543 *MS_JGB_2023-01-29_S104.flac
5e8f771b772c5dde3f5b377db9e3a3bd *MS_JGB_2023-01-29_S105.flac
ddf52432551852fe257a9b38713e00dc *MS_JGB_2023-01-29_S106.flac
63c999deb7e8027837599fc64f7fdb74 *MS_JGB_2023-01-29_S107.flac
9fc23a512284254ceeee7f26078085b9 *MS_JGB_2023-01-29_S108.flac
42872b4dded43502c57089b9ac7df339 *MS_JGB_2023-01-29_S109.flac
c33fcebf72d921736cab35cbdd405233 *MS_JGB_2023-01-29_S201.flac
62b3b97a8a645a364ebd8e4bb6298f50 *MS_JGB_2023-01-29_S202.flac
ead1d72f9e504507d7c1a8266055e638 *MS_JGB_2023-01-29_S203.flac
7902527f14f44211ac3915fff02566c8 *MS_JGB_2023-01-29_S204.flac
b69b7884d88b1adc89b6d107e039b28c *MS_JGB_2023-01-29_S205.flac
ff28c34dbbbbb2847ac9cbf121da7c86 *MS_JGB_2023-01-29_S206.flac
5014328d16da7d53fb3172598385026b *MS_JGB_2023-01-29_S207.flac
3adce0365acc530f007c91374786c9bd *MS_JGB_2023-01-29_S208.flac
MS_JGB_2023-01-29_S101.flac:ac590a8b5179e84215d984d5e66c7ad8
MS_JGB_2023-01-29_S102.flac:f4f9449380bc98114f32955a70d319fb
MS_JGB_2023-01-29_S103.flac:d7c623a251a55ddd7d47c3456ab50361
MS_JGB_2023-01-29_S104.flac:f6889a9da76c24d9318a08569d5b32d4
MS_JGB_2023-01-29_S105.flac:3e5098e8f490351f544f138fc79da64b
MS_JGB_2023-01-29_S106.flac:d88b4837042b8fef873a87f7fe6b7e7e
MS_JGB_2023-01-29_S107.flac:7dd2c348fb120d1e31c562220b48a885
MS_JGB_2023-01-29_S108.flac:8e6ab67d0a28d81ad9e491ecf3e5ae03
MS_JGB_2023-01-29_S109.flac:028d4b0c769dc03703f2b3a47ee6fa4e
MS_JGB_2023-01-29_S201.flac:80d439c2a64811642530aef18ddd9386
MS_JGB_2023-01-29_S202.flac:5d401f3b4f6e218a2097a6f37698638a
MS_JGB_2023-01-29_S203.flac:0c3a301bc840806261345bae7cf6d9a6
MS_JGB_2023-01-29_S204.flac:5c531576863c1ba96d5ba48fc5321b33
MS_JGB_2023-01-29_S205.flac:b3ce0a4ffb653046ac9b5424033b888d
MS_JGB_2023-01-29_S206.flac:4207e36de3f3cc586a4ab6834c780bcf
MS_JGB_2023-01-29_S207.flac:a98c2f3881675acbb6373ea168b4c8ab
MS_JGB_2023-01-29_S208.flac:a3713cb190f2731bd9e460e78609d61c

Comments
Date User Comment
etreedb.org
For administrative requests email contact@etreedb.org
This website written by Tom H Anderson and maintained by the etreedb.org community.

Cached: Mon, 17 Jun 2024 07:20:58 EDT