Melvin Seals & JGB 04/01/23
So Many Roads Museum and Brewery, Denver, CO
Source # 164282
Entered by x poordevil
Checksums MS_JGB-2023-04-01.MTX.Hayes.Flac1644.ffp , MS_JGB-2023-04-01.md5
Disc Counts 0 / 0
Media Size Compressed: 852.03 MB (893413551 bytes)
Date Circulated
Date Added
04/05/2023
04/05/2023
Download Text | Download Zip
Other Sources
Source Summary
Flac 1644: 4 Mic Matrix: DPA4015 | DPA4018
Source 1: DPA 4015 (DIN) -> Naiant Little box -> JWmod Tascam DR70
Source 2: DPA 4018 (NOS) > JWmod Tascam DR70
Location: FOB, DFC. Mics on stand ~8.0 feet
Transfer: JWmod Tascam DR70 (24/96) wav -> USB cable -> PC
Editing: Wavelab plugins -> Flac(16/44) MD5's and SBE checked and verified. 04/02/2023
Recorded, edited and Mastered by Patrick H.
  Melvin Seals and JGB
  April 01, 2023
  So Many Roads Museum and Brewery
  Denver, CO
  Total Time = 148:44

  4 Mic Matrix:  DPA4015 | DPA4018

  Source 1: DPA 4015 (DIN) -> Naiant Little
            box -> JWmod Tascam DR70

  Source 2: DPA 4018 (NOS) > JWmod Tascam DR70

  Location: FOB, DFC. Mics on stand ~8.0 feet.

  Transfer: JWmod Tascam DR70 (24/96) wav ->
  USB cable -> PC

  Editing: Wavelab plugins -> Flac(16/44)

  MD5's and SBE checked and verified.
  04/02/2023

  Recorded, edited and Mastered by Patrick H.

  Set 1
  01 How Sweet it is 7:32
  02 Its a Wonderful World 8:01
  03 We Be Jammin 8:19
  04 Run for the Roses 7:42
  05 Breadbox 8:35
  06 Don't Let Go -> Drums -> 19:49
  07 Hey Pocky Way 13:03

  Set 2
  01 //Midnite Hour 1:41
  02 Stop that Train 12:41
  03 I'll will take a Melody 11:11
  04 Money Honey 8:25
  05 That's all Right Mama 7:43
  06 When I Paint My Masterpiece 5:52
  07 Scarlet Begonnias -> 8:51
  08 Rueben and Cherish 8:59
  09 Let it Grow 10:12

  Band:
  Melvin Seals Organ
  John Kadlecik Guitar and Vocals
  John-Paul Mclean Bass and Vocal
  Jeremy Hoenig Drums
  Ron Hollowday Sax
  Armando - JGB FOH

  Notes: MS played 2 one hour+ sets.
  Strong show. No female singers.
  Well attended Sunday show.

  Crowd noise can be heard though
  mostly between songs.

  Performance: A
  Sound Quality: A-

  Support Live Music!


  shntool
    length     expanded size    cdr  WAVE problems  fmt   ratio  filename
     7:32.50       79850444 B   ---   --   -----    wav  1.0000  MS_JGB_2023-04-01_S101.wav
     8:01.37       84935468 B   ---   --   -----    wav  1.0000  MS_JGB_2023-04-01_S102.wav
     8:19.32       88098908 B   ---   --   -----    wav  1.0000  MS_JGB_2023-04-01_S103.wav
     7:42.67       81654428 B   ---   --   -----    wav  1.0000  MS_JGB_2023-04-01_S104.wav
     8:35.18       90888380 B   ---   --   -----    wav  1.0000  MS_JGB_2023-04-01_S105.wav
    19:49.66      209894876 B   ---   --   -----    wav  1.0000  MS_JGB_2023-04-01_S106.wav
    13:03.62      138267068 B   ---   --   -----    wav  1.0000  MS_JGB_2023-04-01_S107.wav
     1:41.54       17943452 B   ---   --   -----    wav  1.0000  MS_JGB_2023-04-01_S201.wav
    12:41.65      134393324 B   ---   --   -----    wav  1.0000  MS_JGB_2023-04-01_S202.wav
    11:11.57      118498508 B   ---   --   -----    wav  1.0000  MS_JGB_2023-04-01_S203.wav
     8:25.26       89143196 B   ---   --   -----    wav  1.0000  MS_JGB_2023-04-01_S204.wav
     7:43.01       81675596 B   ---   --   -----    wav  1.0000  MS_JGB_2023-04-01_S205.wav
     5:52.39       62184572 B   ---   --   -----    wav  1.0000  MS_JGB_2023-04-01_S206.wav
     8:51.50       93786044 B   ---   --   -----    wav  1.0000  MS_JGB_2023-04-01_S207.wav
     8:59.15       95114924 B   ---   --   -----    wav  1.0000  MS_JGB_2023-04-01_S208.wav
    10:12.13      107987420 B   ---   --   -----    wav  1.0000  MS_JGB_2023-04-01_S209.wav
   148:44.52     1574316608 B                            1.0000  (16 files)

  md5
ca16dad1d0dd065e0f755f18546a368b *MS_JGB_2023-04-01_S101.flac
84f6f5e3b448ea71717cdd5f2ae6c658 *MS_JGB_2023-04-01_S102.flac
bd9f736276b6f60205d533f3d13d6688 *MS_JGB_2023-04-01_S103.flac
04e7695708ef1d6f1a44c0f329b2c7b0 *MS_JGB_2023-04-01_S104.flac
9db918153654c197914026712ac98a25 *MS_JGB_2023-04-01_S105.flac
f19d32275acd0150e4d913b118bfde65 *MS_JGB_2023-04-01_S106.flac
b24bebfc802d3dcd4bd67ad1aff070db *MS_JGB_2023-04-01_S107.flac
9636874a1e467ac838eabf8b5b63090f *MS_JGB_2023-04-01_S201.flac
ac187045aabebb7ecb0cd67f49d14213 *MS_JGB_2023-04-01_S202.flac
2e666bbdde33e9f60d66d5b959a8fd0e *MS_JGB_2023-04-01_S203.flac
061135f7496c5d7600c4d1d13e95daf7 *MS_JGB_2023-04-01_S204.flac
5f74049a0c46474ab1bbd620d6a54da0 *MS_JGB_2023-04-01_S205.flac
769be771ee647722a81d5fd339c925ff *MS_JGB_2023-04-01_S206.flac
9812f305fac3d92122ff68c34e4c226d *MS_JGB_2023-04-01_S207.flac
501afbcf3bfec3266dca4cc562c1404d *MS_JGB_2023-04-01_S208.flac
b8e30cdc9ae59b358d5d4a9a24593728 *MS_JGB_2023-04-01_S209.flac



MS_JGB_2023-04-01_S101.flac:d6bc408a3d456bef3f0a3b925d66470a
MS_JGB_2023-04-01_S102.flac:fd6c675d9f108ae98f387f78264dffeb
MS_JGB_2023-04-01_S103.flac:470a08fb08c9f8e8b6d06b97ac679b12
MS_JGB_2023-04-01_S104.flac:a5c801d7fb496322555175ff2033591d
MS_JGB_2023-04-01_S105.flac:95a1a5910dcb64ea21df011dc41e264f
MS_JGB_2023-04-01_S106.flac:ecaef405969796e209c8be26324c7e8e
MS_JGB_2023-04-01_S107.flac:4f25fbf455e918e0328cd248ddb16efc
MS_JGB_2023-04-01_S201.flac:b2c0a99e943926faad0fd54b8b0b29df
MS_JGB_2023-04-01_S202.flac:5bb1d02e9db3add44fab326b7e73a465
MS_JGB_2023-04-01_S203.flac:e3bf0aea86594d7fefb516f26f700178
MS_JGB_2023-04-01_S204.flac:e38f5c84089494b22b844c797d376bbc
MS_JGB_2023-04-01_S205.flac:6fee3e5078ab4c99eb53bb562bbfd060
MS_JGB_2023-04-01_S206.flac:5ba2381e53a2ffb79048ca56d5608a25
MS_JGB_2023-04-01_S207.flac:2e12fe44a7c784d15b29a6f8050ac789
MS_JGB_2023-04-01_S208.flac:76a08d5310b7e3ec8c083cbf8f47c423
MS_JGB_2023-04-01_S209.flac:24a8376af1ea1aa73c87a5d2300dbd19
ca16dad1d0dd065e0f755f18546a368b *MS_JGB_2023-04-01_S101.flac
84f6f5e3b448ea71717cdd5f2ae6c658 *MS_JGB_2023-04-01_S102.flac
bd9f736276b6f60205d533f3d13d6688 *MS_JGB_2023-04-01_S103.flac
04e7695708ef1d6f1a44c0f329b2c7b0 *MS_JGB_2023-04-01_S104.flac
9db918153654c197914026712ac98a25 *MS_JGB_2023-04-01_S105.flac
f19d32275acd0150e4d913b118bfde65 *MS_JGB_2023-04-01_S106.flac
b24bebfc802d3dcd4bd67ad1aff070db *MS_JGB_2023-04-01_S107.flac
9636874a1e467ac838eabf8b5b63090f *MS_JGB_2023-04-01_S201.flac
ac187045aabebb7ecb0cd67f49d14213 *MS_JGB_2023-04-01_S202.flac
2e666bbdde33e9f60d66d5b959a8fd0e *MS_JGB_2023-04-01_S203.flac
061135f7496c5d7600c4d1d13e95daf7 *MS_JGB_2023-04-01_S204.flac
5f74049a0c46474ab1bbd620d6a54da0 *MS_JGB_2023-04-01_S205.flac
769be771ee647722a81d5fd339c925ff *MS_JGB_2023-04-01_S206.flac
9812f305fac3d92122ff68c34e4c226d *MS_JGB_2023-04-01_S207.flac
501afbcf3bfec3266dca4cc562c1404d *MS_JGB_2023-04-01_S208.flac
b8e30cdc9ae59b358d5d4a9a24593728 *MS_JGB_2023-04-01_S209.flac

Comments
Date User Comment
etreedb.org
For administrative requests email contact@etreedb.org
This website written by Tom H Anderson and maintained by the etreedb.org community.

Cached: Mon, 17 Jun 2024 06:11:44 EDT