Sound Tribe Sector 9 09/03/99
Music Farm, Charleston, SC
Source # 34258
Entered by md
Checksums all , st5
Disc Counts 1 / 1
Media Size
Uncompressed: 681.65 MB (714761284 bytes)
Date Circulated
Date Added
01/15/2003
04/23/2006
Download Text | Download Zip

Other Sources
Source Summary
AKG C3000 > Denecke PS-2 > Sony TCD-D8 > Sony 59ES > Audiophile 2496 > Wave Lab 4.0 > CDWav > mkwACT > SHN
Sound Tribe Sector 9
09/03/1999
Music Farm - Charleston, SC

Source: AKG C3000 > Denecke PS-2 > Sony TCD-D8
Lineage: Sony 59ES > Monster Coax > Audiophile 2496 > Wave Lab 4.0 > CDWave > mkwACT > shn
Transferred by: Wade Cooper

01 Improv A >
02 Improv B >
03 T.W.E.L.V.E. >
04 Orbital >
--- Horn jam (starts @ 7.20)
05 Tap In >
--- King Pharoh's Tomb Jam (starts @ 8.04)
06 encore break
07 Itzamana





    length     expanded size    cdr  WAVE problems  fmt   ratio  filename
     9:21.58       99096796 B   -b-   --   ---xx    shn  0.5584  sts9_1999-09-03t01.shn
     5:53.67       62426828 B   ---   --   ---xx    shn  0.5806  sts9_1999-09-03t02.shn
    10:57.28      115960700 B   ---   --   ---xx    shn  0.6420  sts9_1999-09-03t03.shn
    12:18.72      130352588 B   ---   --   ---xx    shn  0.6054  sts9_1999-09-03t04.shn
    14:55.43      157979180 B   ---   --   ---xx    shn  0.6007  sts9_1999-09-03t05.shn
     0:40.00        7056044 B   ---   --   ---xx    shn  0.4031  sts9_1999-09-03t06.shn
    13:24.27      141889148 B   ---   --   ---xx    shn  0.6020  sts9_1999-09-03t07.shn
    67:31.70      714761284 B                            0.5990  (7 files)


all
a415d047eab28c17bed2b0f36bf62683 *sts9_1999-09-03t01.shn
378ee2820068e001748fd4b82c9aba45 *sts9_1999-09-03t02.shn
58d9ccf0b3fc354890ffe7b4e91883b5 *sts9_1999-09-03t03.shn
45f997118de56819d52e2dc6a8977b38 *sts9_1999-09-03t04.shn
2224d7cd183ea337f63124208fbff927 *sts9_1999-09-03t05.shn
273c1fd7768cb75385a9bc916f35f4de *sts9_1999-09-03t06.shn
3cda98c2ff761559238cf0fab9fdb2ee *sts9_1999-09-03t07.shn
st5
48e0d87b01cedd37d6194746b3616292 [shntool] sts9_1999-09-03t01.shn
3320dc9175f0bb03cfc95b061c1b8743 [shntool] sts9_1999-09-03t02.shn
2008caf2811fea9c4d0d8cc9f7d46595 [shntool] sts9_1999-09-03t03.shn
10f0c6bf7d26654232ae6b45c4b9d9a2 [shntool] sts9_1999-09-03t04.shn
e60e7dd06735b721d280ae83550ae466 [shntool] sts9_1999-09-03t05.shn
fb3b8218158ef1071b9cc17106c89b0c [shntool] sts9_1999-09-03t06.shn
ae904d049c6da3ce21d8814f8b2e02ce [shntool] sts9_1999-09-03t07.shn

Comments
Date User Comment
etreedb.org
For administrative requests email contact@etreedb.org
This website written by Tom H Anderson and maintained by the etreedb.org community.

Cached: Mon, 27 May 2024 11:58:27 EDT