Grateful Dead 12/30/78
Pauley Pavilion, UCLA, Los Angeles, CA
Source Summary
flac16; SBD>Rm>Reel>Cass>Dat - Fix of shn id 18092 by Bill Tetzeli. Note Added 11/9/08: Reflac version w/o replay gain added. See info file for details
12/30/78 - Grateful Dead
Pauley Pavilion - UCLA
Los Angeles, CA  

------------------------------------------------------------------------
Fix of shnid 18092

I made the transition between CDs 2 and 3 seamless using CE 2000.
Resulting SBEs were fixed and verified using shntool.  Thanks to
Charlie Miller for providing the overlap between the two CDs that made
this fix possible.  Nonseekable SHNs were converted to FLAC.

Bill Tetzeli (btet@adelphia.net)
4/6/2006
------------------------------------------------------------------------
When this source was first circulated, the flac files contained
REPLAYGAIN tags. The wav files compressed inside the flac files are
fine, but if you listen to the flac files themselves using a player
like WinAMP, these tags cause all the tracks to be played at the same
volume. That's not good for concerts where some tracks are supposed to
be louder than others.

There's a new version of this source available. It has exactly the
same wav files; it's just the flac wrapper that's different, the
wrapper doesn't have REPLAYGAIN set anymore. The new version has the
same ffp file (since the wav's are the same), but a new md5 file
(since the flac files are different). The md5 file for the old source
is called "orig-flac-replaygain-md5"; the md5 file for the good new
source is called "flac-md5". If you have a source for this that
matches the ffp, you can create the new source by unflac'ing the old
source and then recompressing at flac level 8 using the flac command
line tool or the flac frontend.

From now on, only the new version of the source should be circulated.

SteveSw - Nov, 2008
------------------------------------------------------------------------

Recording Info:
SBD>Rm>Reel>Cass>Dat

Transfer Info:
Dat(Sony R500)>Prodif Plus>Samplitude v6.0>SHN
(2 Discs SHN / 3 Discs Audio)

All transfers and edits by Charlie Miller
charliemiller87@earthlink.net
6/16/03

Notes:
-Aud patch supplies last 3 songs
-Most people list this as Rm>PCM>Dat>CD, they are wrong
-Normalized and tracked with Samplitude v6.0

Set 1:
d1t01 - Jack Straw
d1t02 - They Love Each Other
d1t03 - Mama Tried ->
d1t04 - Mexicali Blues
d1t05 - Loser
d1t06 - Looks Like Rain
d1t07 - Stagger Lee
d1t08 - Passenger
d1t09 - Tennessee Jed
d1t10 - Minglewood Blues
d2t01 - Sugaree
d2t02 - The Promised Land

Set 2:
d2t03 - I Need A Miracle ->
d2t04 - Bertha ->
d2t05 - Good Lovin'
d2t06 - Scarlet Begonias ->
d2t07 - Fire On The Mountain
d2t08 - Playing In The Band ->
d2t09 - Shakedown Street ->
d3t01 - Drums ->
d3t02 - Ollin Arrageed* ->
d3t03 - Space ->
d3t04 - Saint Stephen ->
d3t05 - Not Fade Away ->
d3t06 - Goin' Down The Road Feeling Bad ->
d3t07 - Around And Around

Encore:
d3t08 - One More Saturday Night

Notes:
* With Hamza el-Din  




==========

    length     expanded size    cdr  WAVE problems  fmt   ratio  filename
     6:28.27       68506748 B   ---   --   ---xx   flac  0.6412  gd78-12-30d1t01.flac
     8:41.53       92029100 B   ---   --   ---xx   flac  0.6197  gd78-12-30d1t02.flac
     2:28.47       26217788 B   ---   --   ---xx   flac  0.6623  gd78-12-30d1t03.flac
     5:43.51       60625196 B   ---   --   ---xx   flac  0.6251  gd78-12-30d1t04.flac
     8:40.26       91789196 B   ---   --   ---xx   flac  0.6399  gd78-12-30d1t05.flac
    10:22.56      109852556 B   ---   --   ---xx   flac  0.6384  gd78-12-30d1t06.flac
     6:58.12       73763468 B   ---   --   ---xx   flac  0.6330  gd78-12-30d1t07.flac
     7:39.33       81045260 B   ---   --   ---xx   flac  0.6427  gd78-12-30d1t08.flac
    11:33.27      122308748 B   ---   --   ---xx   flac  0.6420  gd78-12-30d1t09.flac
     6:34.51       69621596 B   ---   --   ---xx   flac  0.6499  gd78-12-30d1t10.flac
    12:51.61      136147916 B   ---   --   ---xx   flac  0.6377  gd78-12-30d2t01.flac
     4:38.73       49210940 B   ---   --   ---xx   flac  0.6852  gd78-12-30d2t02.flac
     4:38.72       49208588 B   ---   --   ---xx   flac  0.6343  gd78-12-30d2t03.flac
     6:37.30       70101404 B   ---   --   ---xx   flac  0.6385  gd78-12-30d2t04.flac
     9:21.50       99078044 B   ---   --   ---xx   flac  0.6165  gd78-12-30d2t05.flac
    10:00.58      105976460 B   ---   --   ---xx   flac  0.6369  gd78-12-30d2t06.flac
    14:15.14      150854972 B   ---   --   ---xx   flac  0.6002  gd78-12-30d2t07.flac
     6:47.67       71952428 B   ---   --   ---xx   flac  0.6234  gd78-12-30d2t08.flac
     8:50.38       93581420 B   ---   --   ---xx   flac  0.6408  gd78-12-30d2t09.flac
    10:43.03      113432300 B   ---   --   ---xx   flac  0.6137  gd78-12-30d3t01.flac
    13:35.56      143897756 B   ---   --   ---xx   flac  0.5878  gd78-12-30d3t02.flac
     2:28.45       26213084 B   ---   --   ---xx   flac  0.6065  gd78-12-30d3t03.flac
     7:47.30       82449404 B   ---   --   ---xx   flac  0.6504  gd78-12-30d3t04.flac
     7:23.28       78211100 B   ---   --   ---xx   flac  0.6453  gd78-12-30d3t05.flac
     6:33.03       69332300 B   ---   --   ---xx   flac  0.6424  gd78-12-30d3t06.flac
    10:55.72      115711388 B   ---   --   ---xx   flac  0.6464  gd78-12-30d3t07.flac
     4:43.62       50067068 B   ---   --   ---xx   flac  0.6832  gd78-12-30d3t08.flac
   217:25.20     2301186228 B                            0.6326  (27 files)
ffp
gd78-12-30d1t01.flac:b6871ff82bb64f4c4e480bc642e51b9c
gd78-12-30d1t02.flac:4d72cb62dab5f5dc18b78924737dfe91
gd78-12-30d1t03.flac:0071d155cb384b73e612d20d85fa2c93
gd78-12-30d1t04.flac:b54251c2662b7aeecc2c5e09444cffc2
gd78-12-30d1t05.flac:59c2a44435d338237ce73a820ef09c83
gd78-12-30d1t06.flac:5523d4fac1dc82d901f94a7f23be76ee
gd78-12-30d1t07.flac:79af3d16c65edc0cb32dfc8ce58a2474
gd78-12-30d1t08.flac:97fe5db64d481ac116b71c133482d517
gd78-12-30d1t09.flac:6221f9dfb887a90c519b2cb13984256e
gd78-12-30d1t10.flac:00080183d51d3397b751d5f05e8b388b
gd78-12-30d2t01.flac:1578a8b40b1323ccd2b057f13bc564b9
gd78-12-30d2t02.flac:7ef309f0f21137462dec3fc5f9a4cdcb
gd78-12-30d2t03.flac:53085ba9c1fc472ba5c87a683bdd11cd
gd78-12-30d2t04.flac:3d56b198c2d6c31c96e5696a282e240f
gd78-12-30d2t05.flac:691ee00ca5d0fef0a5076e5bba77d10e
gd78-12-30d2t06.flac:08400b1c81c6acc286c704a02e88efab
gd78-12-30d2t07.flac:0bf6976ec231657e8d5ed48237921cc1
gd78-12-30d2t08.flac:175b93f0c2add73720c0bf565c791137
gd78-12-30d2t09.flac:423edd2d44f3d4f41f219b4d5282b026
gd78-12-30d3t01.flac:3e3f2e8033c8e1ea38b0f2ccee1c847f
gd78-12-30d3t02.flac:147d6f46a1b54b997fa5b17dba4b4857
gd78-12-30d3t03.flac:215d4d87287f775cb5027c33a16cc6bb
gd78-12-30d3t04.flac:9d8eb5d3943400b4ec1f2b3ef87a0983
gd78-12-30d3t05.flac:154760be3439eb2bb3039e2825ddd9f1
gd78-12-30d3t06.flac:1b3077b317ef4d7d7b5c336b036b663d
gd78-12-30d3t07.flac:a1743d010cd79a18f462265a54786e88
gd78-12-30d3t08.flac:74f6b4c12836d70dc2339ef7daa2f929
8c4ca5609ec589eb9a6b17f6e1415462 *gd78-12-30d1t01.flac
fc66c2cb58e563f1f4254d402c8f2e68 *gd78-12-30d1t02.flac
778c9cff0f0cc290ed3cbba6b1a307d6 *gd78-12-30d1t03.flac
358d42e298f14e6ba658dae61a37a468 *gd78-12-30d1t04.flac
9a6a32c07db89aa2957fd30e42a53e72 *gd78-12-30d1t05.flac
b386d5279e30526a870af765ffb0f68f *gd78-12-30d1t06.flac
ca58e554601ba8a1c5f03f5795864748 *gd78-12-30d1t07.flac
343f0ffe13e3d132ef236f9844a0c449 *gd78-12-30d1t08.flac
a3d7b535acc25c9d136c608b69429e1d *gd78-12-30d1t09.flac
f422b14479752131b5e0aa5c8e8f6454 *gd78-12-30d1t10.flac
f325e6551ce766b88da353e5135ad7de *gd78-12-30d2t01.flac
dc8485d98605184c8cb3076c37e19a8c *gd78-12-30d2t02.flac
8685dabbd7d31a37c5ad07272cdf6c02 *gd78-12-30d2t03.flac
b83bb67bb734a3e181ee9fae6961669c *gd78-12-30d2t04.flac
56c0e6a9eace7249c21ac964890a2713 *gd78-12-30d2t05.flac
3a7c614d3b327ee6a0fb26f6930eadcc *gd78-12-30d2t06.flac
d467516fb2167fc635314cfa3cab2985 *gd78-12-30d2t07.flac
a9e07aa263cc82420b87ec9b36117ee5 *gd78-12-30d2t08.flac
e72c5568fe0b22ec3a1357087b331902 *gd78-12-30d2t09.flac
06226ae2c8037503fa92ba9bd283b2fe *gd78-12-30d3t01.flac
88c01e7f842cb223609fde5b3b2b4d1d *gd78-12-30d3t02.flac
a1e4a11e822af6779f5d746a7f9b2619 *gd78-12-30d3t03.flac
516b8eb4b4c9d0fac919146f264e7181 *gd78-12-30d3t04.flac
fc6428a5a57f17f031f4a1fd721a9cf6 *gd78-12-30d3t05.flac
b6aeea85743a2830871a5b3681383c66 *gd78-12-30d3t06.flac
de6b1be3fe76f5e68c45dedf45a61927 *gd78-12-30d3t07.flac
d79a63bbce122a9baed55913c401e50b *gd78-12-30d3t08.flac
e6f7f56174e8860e4252e1a8928841fd *gd78-12-30d1t01.flac
f8d31f88239e43d1cff6c951b9b4a34f *gd78-12-30d1t02.flac
2c5f27df7234360902971b315a28f3c2 *gd78-12-30d1t03.flac
fdb69731ede588d8d1138f86def7f56e *gd78-12-30d1t04.flac
06d24703d0b2354b0193ed535ba8c553 *gd78-12-30d1t05.flac
0ee663844ddc07e9caf6ca837a5f911e *gd78-12-30d1t06.flac
c3e7155f325842c3a6d3c128cb0059d0 *gd78-12-30d1t07.flac
777295857ca57d8b3bb94e7c634f61e7 *gd78-12-30d1t08.flac
f8ee99b86f5b6d74250df519b01546c3 *gd78-12-30d1t09.flac
abdaf75713efbab49c2123c5347c2e21 *gd78-12-30d1t10.flac
fa645fc7bd907cc084d480794039d809 *gd78-12-30d2t01.flac
69cddce855a8df6a0275b3aaf9eb612e *gd78-12-30d2t02.flac
1f640a5fdc72b429b31af83672a80ce3 *gd78-12-30d2t03.flac
d3d58ab0cd0269aa68173baa514a1bc9 *gd78-12-30d2t04.flac
84fed86eef0bbd3333d2ce4391a95c2a *gd78-12-30d2t05.flac
0c7a7370e43fb553128abcba13ba1489 *gd78-12-30d2t06.flac
e94018a94cebfc94e7f37304e507532e *gd78-12-30d2t07.flac
f3a4c6a7a680323be24870a00044e429 *gd78-12-30d2t08.flac
60884006c6bf9ded99b87039f4feb4b2 *gd78-12-30d2t09.flac
fbbb37a1efc4d6c1bce4ecd8e97935f4 *gd78-12-30d3t01.flac
6c9d4d70bd7a5b810cf8d383a66104e5 *gd78-12-30d3t02.flac
e965f27614a576c3e52da5c581d56c35 *gd78-12-30d3t03.flac
a2d7378a9a39a41bd9f3f4d4645505aa *gd78-12-30d3t04.flac
05d2fcf4e1e4a966a6daedc96cdc2a77 *gd78-12-30d3t05.flac
84a93a84699b7e73a71189d3e0d4fefd *gd78-12-30d3t06.flac
4324a0785c45b6d2c566ef3aac2abe8d *gd78-12-30d3t07.flac
829a5b0957d14dda676772615d457c5c *gd78-12-30d3t08.flac

Comments
Other Sources (comments)
SBD> MR> PCM> DAT> CDR;... (1) SBD>Rm>Reel>Cass>Dat with... (1) MAR (Taped by Greg Schug, 2... (0) flac16 ; Matrix from:... (0) flac16 ; Recording Info:... (0) flac16 ; Source: Audience... (1) flac24 ; Source: Audience... (1) flac16 ; Set 1 Source... (0) flac16/48kHz ; Mark... (0) flac24 ; Mark Severson's... (0)
Date User Comment
11/09/2006 btet This was inadvertently FLAC encoded with replaygain. If you're playing the FLACs in Winamp you should reFLAC the files without replaygain option. If you're burning extracted .wavs to CD, these are unaffected and no reFLACing is necessary. I apologize for the error.
etreedb.org
For administrative requests email contact@etreedb.org
This website written by Tom H Anderson and maintained by the etreedb.org community.

Cached: Tue, 17 Sep 2019 13:20:04 EDT