Grateful Dead 12/28/78
Golden Hall, Community Concourse, San Diego, CA
Source Summary
flac16; Fix of shn id 7487 - Cassette to CDR transfer by Dave Cohen via a LynxOne 24 bit A/D card > Wave Lab3 via Bill Tetzeli. Note Added 11/9/08: Reflac version w/o replay gain added. See info file for details
Grateful Dead
12/28/78
Golden Hall
Community Concourse
San Diego, CA
------------------------------------------------------------------------
Fix of shnid 7487

I pasted in a few seconds of tuning just before Sugaree from the AUD
on archive (shnid 19506). Although it and Me & My Uncle both come in
right at the very beginning, the entire songs are there and neither
can really be called cut. I also eliminated a few seconds' gap between
drums and space, making it seamless. All shns converted to flac, SBEs
were fixed using shntool.

Bill Tetzeli (btet@adelphia.net)
9:08 PM 6/16/2006
------------------------------------------------------------------------
When this source was first circulated, the flac files contained
REPLAYGAIN tags. The wav files compressed inside the flac files are
fine, but if you listen to the flac files themselves using a player
like WinAMP, these tags cause all the tracks to be played at the same
volume. That's not good for concerts where some tracks are supposed to
be louder than others.

There's a new version of this source available. It has exactly the
same wav files; it's just the flac wrapper that's different, the
wrapper doesn't have REPLAYGAIN set anymore. The new version has the
same ffp file (since the wav's are the same), but a new md5 file
(since the flac files are different). The md5 file for the old source
is called "orig-flac-replaygain-md5"; the md5 file for the good new
source is called "flac-md5". If you have a source for this that
matches the ffp, you can create the new source by unflac'ing the old
source and then recompressing at flac level 8 using the flac command
line tool or the flac frontend.

From now on, only the new version of the source should be circulated.

SteveSw - Nov, 2008
------------------------------------------------------------------------

Master Soundboard Reel > Cassette > CDR

Cassette to CDR transfer by Dave Cohen via a LynxOne 24 bit A/D card > Wave Lab3

CD ReMastering by Scott Clugston
EAC'ed / SHN'ed by Scott Clugston
1/10/02

Disc 1
1st Set
1. Sugaree
2. Funiculi Funicula
3. BIODTL
4. Dire Wolf
5. LLR
6. Stagger Lee
7. Me & My Uncle>
8. Big River
9. Candyman
10.Minglewood Blues

Disc 2
1. T Jed
2. Lazy Lightning>
3. Supplication
2nd Set
4. Shakedown Street
5. Heart of Me
6. Estimated Prophet>
7. Eyes of the World>
8. Drums>

Disc 3
1. Space>
2. Truckin'>
3. Wharf Rat>
4. Sugar Magnolia
Encore
5. JBG


==========

    length     expanded size    cdr  WAVE problems  fmt   ratio  filename
    15:14.73      161401340 B   ---   --   ---xx   flac  0.5795  gd78-12-28d1t01.flac
     2:43.41       28849676 B   ---   --   ---xx   flac  0.4460  gd78-12-28d1t02.flac
     4:48.42       50902028 B   ---   --   ---xx   flac  0.5425  gd78-12-28d1t03.flac
     6:11.72       65613788 B   ---   --   ---xx   flac  0.5293  gd78-12-28d1t04.flac
     9:48.36      103807916 B   ---   --   ---xx   flac  0.5213  gd78-12-28d1t05.flac
     6:27.20       68313884 B   ---   --   ---xx   flac  0.5719  gd78-12-28d1t06.flac
     2:59.74       31749692 B   ---   --   ---xx   flac  0.5891  gd78-12-28d1t07.flac
     7:50.35       82990364 B   ---   --   ---xx   flac  0.5641  gd78-12-28d1t08.flac
     9:12.62       97518668 B   ---   --   ---xx   flac  0.5444  gd78-12-28d1t09.flac
     5:17.40       56012924 B   ---   --   ---xx   flac  0.6028  gd78-12-28d1t10.flac
    10:03.57      106503308 B   ---   --   ---xx   flac  0.5871  gd78-12-28d2t01.flac
     3:35.56       38057756 B   ---   --   ---xx   flac  0.6223  gd78-12-28d2t02.flac
     5:22.64       56951372 B   ---   --   ---xx   flac  0.6152  gd78-12-28d2t03.flac
    14:11.68      150276380 B   ---   --   ---xx   flac  0.6238  gd78-12-28d2t04.flac
     6:21.56       67340156 B   ---   --   ---xx   flac  0.5812  gd78-12-28d2t05.flac
    11:35.62      122743868 B   ---   --   ---xx   flac  0.6474  gd78-12-28d2t06.flac
     9:29.62      100517468 B   ---   --   ---xx   flac  0.6435  gd78-12-28d2t07.flac
     7:52.60       83401964 B   ---   --   ---xx   flac  0.5886  gd78-12-28d2t08.flac
     2:58.18       31441580 B   ---   --   ---xx   flac  0.5744  gd78-12-28d3t01.flac
     8:29.02       89792348 B   ---   --   ---xx   flac  0.6503  gd78-12-28d3t02.flac
    10:12.51      108076796 B   ---   --   ---xx   flac  0.6026  gd78-12-28d3t03.flac
     9:14.18       97767980 B   ---   --   ---xx   flac  0.6281  gd78-12-28d3t04.flac
     4:19.06       45701756 B   ---   --   ---xx   flac  0.6341  gd78-12-28d3t05.flac
   174:23.25     1845733012 B                            0.5925  (23 files)
07119676964ea9a5b145094e98ebd531 *gd78-12-28d1t01.flac
f50715563b9ee2e679b66fc05e341793 *gd78-12-28d1t02.flac
b3ce1be703cb7f7effdf3df2881500b3 *gd78-12-28d1t03.flac
be1740d5d6a9150acb29316b55839e4a *gd78-12-28d1t04.flac
0d9d0ffd5199f4c52e8aa0e13606f081 *gd78-12-28d1t05.flac
da924609f359812ebfafdb12d2237d4e *gd78-12-28d1t06.flac
c5b832766afec411647f7896994ca5b2 *gd78-12-28d1t07.flac
2867d772b016bc93af99a8424303ddcc *gd78-12-28d1t08.flac
d79600da92c2753ae14c63165b061526 *gd78-12-28d1t09.flac
0160fcaab5723602356bd712565e87e7 *gd78-12-28d1t10.flac
ac20c75a89a09e2d773986a3d497fcb5 *gd78-12-28d2t01.flac
a519df0aed805493e7f5dabf00ec676a *gd78-12-28d2t02.flac
752df37551694379741d4a45388c3ad9 *gd78-12-28d2t03.flac
cf0ffe4dca964991164c167e72e05430 *gd78-12-28d2t04.flac
7df42c62323fadaae4b8550dfa057479 *gd78-12-28d2t05.flac
31e3b9fa4bb97848c367bb4a49d8fe52 *gd78-12-28d2t06.flac
0dcd6adbc96671f701db0450d03f7869 *gd78-12-28d2t07.flac
8c07641e463c66ca1e6a2a8252bfda7f *gd78-12-28d2t08.flac
0cf505420f82efaff020c15ffd72ad9c *gd78-12-28d3t01.flac
74d79fb2cba2c916c690f33c64d3ed2c *gd78-12-28d3t02.flac
1fd847bd045793201c151494aa0e7b4f *gd78-12-28d3t03.flac
3862000f50cd786aaccf064f64663491 *gd78-12-28d3t04.flac
0954733d2cdb9a72de10b35781521ab5 *gd78-12-28d3t05.flac
ffp
gd78-12-28d1t01.flac:abab74d903936b301102a4d05e5f3dd9
gd78-12-28d1t02.flac:c4dde4be2eba44a600bebcfe20345587
gd78-12-28d1t03.flac:141a6dfaccb88d6a4c46bfb166072bec
gd78-12-28d1t04.flac:cc8025fe5342b87695f322e7e813c962
gd78-12-28d1t05.flac:c95d96e6a9fbcab59e20376fec9ea4e6
gd78-12-28d1t06.flac:fd98fa61e2396c1070f8ad5c2629dc6c
gd78-12-28d1t07.flac:7b39ca64efdc6ac39e3f081e80e08eb6
gd78-12-28d1t08.flac:12f3874b88966ea4c2a08f5a77f44b82
gd78-12-28d1t09.flac:6cc9109b0d669290a7b379cea5c8d8fc
gd78-12-28d1t10.flac:724041c764a665ed9b815d1ad08ff671
gd78-12-28d2t01.flac:e0c452eeaabc9c81c3800e0458fe5d15
gd78-12-28d2t02.flac:2050ba3e40d9b6ba9555adccee2e91bf
gd78-12-28d2t03.flac:468232dab11a4f4b2071c735b6bb8712
gd78-12-28d2t04.flac:852117df8756996bd4ed894ddaea975a
gd78-12-28d2t05.flac:b8e51cb8f86857aea84a06632fc9cb37
gd78-12-28d2t06.flac:7badfbd8a50b0c72190ce015dcdb10cb
gd78-12-28d2t07.flac:9d9c42c9afe779f7fe651ad8983d375f
gd78-12-28d2t08.flac:15eca0703a5f522e29c92475d5d0330a
gd78-12-28d3t01.flac:b22b0a52aac92f2870ddd29f57de0b11
gd78-12-28d3t02.flac:abb6f432405333198ac46ac88faf4b12
gd78-12-28d3t03.flac:6bcce2de6a18feb36b378b3ac143cfbd
gd78-12-28d3t04.flac:67e633a0179f4391d4c5d16f06b2c1d8
gd78-12-28d3t05.flac:339e47885bb65018d97514af1f189e09
8eb342bd9d399ef382e69f7a03e37227 *gd78-12-28d1t01.flac
e6e2b7143c29a20ec7da1a9b93240012 *gd78-12-28d1t02.flac
19dc31dcb04f820778b895cc66fca4e3 *gd78-12-28d1t03.flac
d31347432c8cf09bd358dacdae8f8526 *gd78-12-28d1t04.flac
d6267a174023ba2322175f67e56618ef *gd78-12-28d1t05.flac
48aa2d8edd92fde3ed6aedda75e2a11e *gd78-12-28d1t06.flac
f229d61aeed80b9f2c29ff2933d19fdf *gd78-12-28d1t07.flac
7078a16eaf3d55ec30b5f9ab38ed3e65 *gd78-12-28d1t08.flac
d8ee99dd7aedf97f3ac3213a50063975 *gd78-12-28d1t09.flac
f78d1f0e045d724769183adc56d5a91b *gd78-12-28d1t10.flac
c8257450c54fb7fb7434071dc74d4c38 *gd78-12-28d2t01.flac
8a4d591aeef9111c694c9c4ad928b41a *gd78-12-28d2t02.flac
899dacf550116c73f437f3d532ded732 *gd78-12-28d2t03.flac
5a96793e08212709d272d48f52071887 *gd78-12-28d2t04.flac
3c16a2b9665aa8f36b2efcce6aff2cf6 *gd78-12-28d2t05.flac
faded4b64425340283088186bc5de6bc *gd78-12-28d2t06.flac
e1d495cd9e8134ad09c0633aba420990 *gd78-12-28d2t07.flac
c3caef834cbf6bebc76c3a4a08162af1 *gd78-12-28d2t08.flac
5268ecd4de5de68ed49ad4db1ac13754 *gd78-12-28d3t01.flac
d3a9d32093f3a7aa9169a4ccf773e492 *gd78-12-28d3t02.flac
0e98cc918c298e583e363048c871726d *gd78-12-28d3t03.flac
bbf4069334127c3d197b9bdb29c2cc48 *gd78-12-28d3t04.flac
a89845ecc52c1befed70889f2ce3fd12 *gd78-12-28d3t05.flac

Comments
Other Sources (comments)
Master Soundboard Reel >... (1) MAR (Taped by Greg Schug, 2... (1) flac16/44.1kHz & 48kHz ;... (0) flac16/48kHz Mark... (0) flac24 ; Mark Severson's... (0)
Date User Comment
11/09/2006 btet This was inadvertently FLAC encoded with replaygain. If you're playing the FLACs in Winamp you should reFLAC the files without the replaygain option. If you're burning extracted .wavs to CD, these are unaffected and no reFLACing is necessary. I apologize for the error.
06/27/2018 charliemiller87@earthlink.net sbd > master cassette > cassette (nak bx300) > cdr (hhb)
etreedb.org
For administrative requests email contact@etreedb.org
This website written by Tom H Anderson and maintained by the etreedb.org community.

Cached: Tue, 17 Sep 2019 09:21:49 EDT