Cracker 08/02/02
Centennial Olympic Park, Atlanta, GA
Source # 67557
Entered by Aaron Wiedmann
Checksums md5
Disc Counts 1 / 1
Media Size
Date Circulated
Date Added
2005-06-06
07/05/2006
Download Text | Download Zip

Other Sources
Source Summary
AUD: AKG 483>HHB PDR-1000>Tascam DA-P1>S/PDIF>Ego-Sys U2A>Cool Edit Pro(DSP)>CDWave>FLAC Frontend
Cracker - 8/2/02
Centennial Olympic Park - Atlanta, GA

01) Euro-Trash Girl
02) Happy Birthday
03) {Interview The Audience}
04) 100 Flower Power Maximum
05) Guarded By Monkeys
06) Teen Angst (What The World Needs Now)
07) Pictures Of Matchstick Men
08) Sweet Thistle Pie
09) Get Off This

[On The Bricks Festival]

www.crackersoul.com

Source: AKG 483> HHB PDR-1000
Transfer: Tascam DA-P1> S/PDIF> Ego-Sys U2A> Cool Edit Pro(DSP)> CDWave> FLAC Frontend

Recorded by Chris Pennington
Transferred by Sloan Simpson

cracker2002-08-02t01.flac:3e4e4db260effa251b7bba5f9b3eb82d
cracker2002-08-02t02.flac:80b84f808e91519a99ef5ec61abe0f02
cracker2002-08-02t03.flac:e5cd58270b31ef2dde77f45197445237
cracker2002-08-02t04.flac:22e49e66e66069d51904edbddd81d1b1
cracker2002-08-02t05.flac:397d0485c7010b2f09cd9a6c3ba18f39
cracker2002-08-02t06.flac:7b12c105076154d503057d460409fc49
cracker2002-08-02t07.flac:aa76d6289b2cf78a3dafba081a194264
cracker2002-08-02t08.flac:5a0d3d24b91238f96d74a979fc17d56b
cracker2002-08-02t09.flac:e3e0f33016275b49e89ba537fede9b9b

    length     expanded size   cdr  WAVE problems filename
    10:21.64      109694972    ---   --   ---xx   cracker2002-08-02t01.flac
     3:30.45       37149884    ---   --   ---xx   cracker2002-08-02t02.flac
     4:02.16       42726476    ---   --   ---xx   cracker2002-08-02t03.flac
     2:52.13       30371420    ---   --   ---xx   cracker2002-08-02t04.flac
     4:56.44       52317932    ---   --   ---xx   cracker2002-08-02t05.flac
     4:28.55       47404604    ---   --   ---xx   cracker2002-08-02t06.flac
     4:46.27       50513948    ---   --   ---xx   cracker2002-08-02t07.flac
     6:36.01       69856796    ---   --   ---xx   cracker2002-08-02t08.flac
     7:45.33       82103660    ---   --   ---xx   cracker2002-08-02t09.flac
    49:19.73      522139692 B                     (totals for 9 files, 0.5991 ov
erall compression ratio)
md5
607980b00f960c46b572d7d39c05ce06 *cracker2002-08-02t01.flac
7074108736cd97d767b658cbbed5eaa5 *cracker2002-08-02t02.flac
86601b522b5d71eb8e655cb30f548e45 *cracker2002-08-02t03.flac
b9c61f591bd939af2ea193726ad3102c *cracker2002-08-02t04.flac
2275f8ad36b0801a9f338fabd86148ed *cracker2002-08-02t05.flac
bfad98681725ba281a8f3afeb2fb60be *cracker2002-08-02t06.flac
5499c314f58c94bc95454e2f1f9875a2 *cracker2002-08-02t07.flac
d692fd7c9f46cf1391c1fbe058e2d337 *cracker2002-08-02t08.flac
b7b819cdfac8fb43854ee7d4bac88642 *cracker2002-08-02t09.flac

Comments
Date User Comment
etreedb.org
For administrative requests email contact@etreedb.org
This website written by Tom H Anderson and maintained by the etreedb.org community.

Cached: Fri, 24 May 2024 22:13:35 EDT