Cracker 05/01/02
Wild Duck Brewpub (Music Hall), Eugene, OR
Source # 67566
Entered by Aaron Wiedmann
Checksums md5
Disc Counts 1 / 2
Media Size
Date Circulated
Date Added
2005-12-20
07/05/2006
Download Text | Download Zip

Other Sources
Source Summary
AUD: ATT822>Sony D8>CDR>FLAC>DAT>FLAC
Cracker
May 1, 2002
Wild Duck Brewery - Eugene OR

Source: ATT822 > Sony D8 > CDR > FLAC

1 cracker2002-05-01d1t01 05:12 Guarded By Monkeys
2 cracker2002-05-01d1t02 04:50 Someday
3 cracker2002-05-01d1t03 04:38 Brides Of Neptune
4 cracker2002-05-01d1t04 09:21 Eurotrash Girl
5 cracker2002-05-01d1t05 03:40 Victoria
6 cracker2002-05-01d1t06 03:14 Lonesome Johnny Blues
7 cracker2002-05-01d1t07 03:52 Pictures Of Matchstick Men
8 cracker2002-05-01d1t08 05:11 PoMM pt 2 - Let's All be Someone Else
9 cracker2002-05-01d1t09 04:07 You Bring Us Down
10 cracker2002-05-01d1t10 04:18 Teen Angst
11 cracker2002-05-01d1t11 03:12 Don't Fuck Me Up With Peace And Love
12 cracker2002-05-01d2t01 04:59 Wedding Day
13 cracker2002-05-01d2t02 01:28 Dr Bernice (false start)
14 cracker2002-05-01d2t03 05:00 I Want Out of The Circus
15 cracker2002-05-01d2t04 03:38 Shiner Bock Song
16 cracker2002-05-01d2t05 05:47 Big Dipper
17 cracker2002-05-01d2t06 04:03 The Man In Me
18 cracker2002-05-01d2t07 04:48 Mr Wrong
19 cracker2002-05-01d2t08 04:20 Shameless
20 cracker2002-05-01d2t09 06:39 Sweet Potato
21 cracker2002-05-01d2t10 06:36 What You're Missing
22 cracker2002-05-01d2t11 05:04 Low






    length     expanded size   cdr  WAVE problems filename
     5:12.54       55163852    ---   --   ---xx   cracker2002-05-01d1t01.flac
     4:50.59       51294812    ---   --   ---xx   cracker2002-05-01d1t02.flac
     4:38.61       49182716    ---   --   ---xx   cracker2002-05-01d1t03.flac
     9:21.03       98967500    ---   --   ---xx   cracker2002-05-01d1t04.flac
     3:40.23       38862140    ---   --   ---xx   cracker2002-05-01d1t05.flac
     3:14.04       34231052    ---   --   ---xx   cracker2002-05-01d1t06.flac
     3:52.73       41096540    ---   --   ---xx   cracker2002-05-01d1t07.flac
     5:11.62       55006268    ---   --   ---xx   cracker2002-05-01d1t08.flac
     4:07.37       43657868    ---   --   ---xx   cracker2002-05-01d1t09.flac
     4:18.20       45558284    ---   --   ---xx   cracker2002-05-01d1t10.flac
     3:12.10       33892364    ---   --   ---xx   cracker2002-05-01d1t11.flac
     4:59.18       52785980    ---   --   ---xx   cracker2002-05-01d2t01.flac
     1:28.18       15565580    ---   --   ---xx   cracker2002-05-01d2t02.flac
     5:00.70       53084684    ---   --   ---xx   cracker2002-05-01d2t03.flac
     3:38.40       38549324    ---   --   ---xx   cracker2002-05-01d2t04.flac
     5:47.06       61224956    ---   --   ---xx   cracker2002-05-01d2t05.flac
     4:03.36       42949916    ---   --   ---xx   cracker2002-05-01d2t06.flac
     4:48.56       50934956    ---   --   ---xx   cracker2002-05-01d2t07.flac
     4:20.36       45948716    ---   --   ---xx   cracker2002-05-01d2t08.flac
     6:39.66       70538876    ---   --   ---xx   cracker2002-05-01d2t09.flac
     6:36.48       69967340    ---   --   ---xx   cracker2002-05-01d2t10.flac
     5:04.57       53759708    ---   --   ---xx   cracker2002-05-01d2t11.flac
   104:08.32     1102223432 B                     (totals for 22 files, 0.5977 overall compression ratio)




cracker2002-05-01d1t01.flac:0228bb7f2d46ccc91a48501aae6b25f9
cracker2002-05-01d1t02.flac:c753570268afa35d286adf690a2de37f
cracker2002-05-01d1t03.flac:e23e09f9ab866075517eed8ebd7b5704
cracker2002-05-01d1t04.flac:b2edd0bd36dcf22e492c5baa0eec6581
cracker2002-05-01d1t05.flac:3f535a868ffe6a60766fbc533b32e91a
cracker2002-05-01d1t06.flac:e903acb6a635e9c4b5b357dd97910fc5
cracker2002-05-01d1t07.flac:7db23b876531e46229577326828b0638
cracker2002-05-01d1t08.flac:812b7c4e14276a0ce02114195403d94c
cracker2002-05-01d1t09.flac:03d196bde9e0ce236221ca79b3afad9c
cracker2002-05-01d1t10.flac:54a31397dd90e5bfa6de8dcc18983201
cracker2002-05-01d1t11.flac:d47f680b80edf8f7de78274d1a72be08
cracker2002-05-01d2t01.flac:bb07904e61a5a62a0672f3efbef100b2
cracker2002-05-01d2t02.flac:4c1a9343562ec2937fdd630374b5ca90
cracker2002-05-01d2t03.flac:cb352defc4a2969fbd6f57bef73c2cb7
cracker2002-05-01d2t04.flac:81fd2efe6afbf35d063c5e30c4009f8c
cracker2002-05-01d2t05.flac:50b5536fcc7cc5dab0cbcfd490c4d64c
cracker2002-05-01d2t06.flac:1c4e37ac2a4a16589c988e93339c8512
cracker2002-05-01d2t07.flac:b232479b38a82d1fade845c2703d1edd
cracker2002-05-01d2t08.flac:f33218a8adf37b56bc7e03ef4b76c35f
cracker2002-05-01d2t09.flac:ffb1a0b53539903c2712f0a2b4f3c4f2
cracker2002-05-01d2t10.flac:ddde835bd3d0bee8c15c271799555630
cracker2002-05-01d2t11.flac:7ad51b13496001a61ddce3f2cede1f50
md5
cracker2002-05-01d1t01.flac:0228bb7f2d46ccc91a48501aae6b25f9
cracker2002-05-01d1t02.flac:c753570268afa35d286adf690a2de37f
cracker2002-05-01d1t03.flac:e23e09f9ab866075517eed8ebd7b5704
cracker2002-05-01d1t04.flac:b2edd0bd36dcf22e492c5baa0eec6581
cracker2002-05-01d1t05.flac:3f535a868ffe6a60766fbc533b32e91a
cracker2002-05-01d1t06.flac:e903acb6a635e9c4b5b357dd97910fc5
cracker2002-05-01d1t07.flac:7db23b876531e46229577326828b0638
cracker2002-05-01d1t08.flac:812b7c4e14276a0ce02114195403d94c
cracker2002-05-01d1t09.flac:03d196bde9e0ce236221ca79b3afad9c
cracker2002-05-01d1t10.flac:54a31397dd90e5bfa6de8dcc18983201
cracker2002-05-01d1t11.flac:d47f680b80edf8f7de78274d1a72be08
cracker2002-05-01d2t01.flac:bb07904e61a5a62a0672f3efbef100b2
cracker2002-05-01d2t02.flac:4c1a9343562ec2937fdd630374b5ca90
cracker2002-05-01d2t03.flac:cb352defc4a2969fbd6f57bef73c2cb7
cracker2002-05-01d2t04.flac:81fd2efe6afbf35d063c5e30c4009f8c
cracker2002-05-01d2t05.flac:50b5536fcc7cc5dab0cbcfd490c4d64c
cracker2002-05-01d2t06.flac:1c4e37ac2a4a16589c988e93339c8512
cracker2002-05-01d2t07.flac:b232479b38a82d1fade845c2703d1edd
cracker2002-05-01d2t08.flac:f33218a8adf37b56bc7e03ef4b76c35f
cracker2002-05-01d2t09.flac:ffb1a0b53539903c2712f0a2b4f3c4f2
cracker2002-05-01d2t10.flac:ddde835bd3d0bee8c15c271799555630
cracker2002-05-01d2t11.flac:7ad51b13496001a61ddce3f2cede1f50

Comments
Date User Comment
etreedb.org
For administrative requests email contact@etreedb.org
This website written by Tom H Anderson and maintained by the etreedb.org community.

Cached: Fri, 24 May 2024 21:47:53 EDT