Mike Doughty 05/21/04
The Orange Peel, Asheville, NC
Source # 69341
Entered by System
Checksums md5
Disc Counts 0 / 0
Media Size
Date Circulated
Date Added
2004-09-22
07/05/2006
Download Text | Download Zip

Other Sources
Source Summary
schoeps mk41 (din) > kc5 > cmc6 > V3 > Dap1 > dap1 > audiophile 24/96 > wavelab 4.0 > cd wave > flac (level 8)
Mike Doughty
5-21-04
The Orange Peel
Asheville,NC

source:  schoeps mk41 (din) > kc5 > cmc6 > V3 > Dap1
transfer: dap1 > audiophile 24/96 > wavelab 4.0 > cd wave > flac (level 8)

taped by Kevin Straker
transferred by gordon@taperssection.com

1.  Grey Ghost
2.  Soft Serve
3.  The Only Answer
4.  Circles
5.  Looking At The World From the Bottom of a Well
6.  Never Gonna Come Back Down
7.  Super Bon Bon
8.  Shunned and Falsified*
9.  Tremendous Brunettes
10. Unsingable Name
11. Fire Truck
12. Janine

Notes:
*Stanton Moore on drums for the remainder of the set
Transfer done with DAT Masters
48k > 44.1k done with WaveLab 4.0
fades added at beginning and end of sets
Sector Boundaries verified with shntool v2.0.3
opened for Galactic

flac fingerprint:
mdoughty2004-05-21t01.flac:4ad8c59b28e43edbe9b8064b3978763f
mdoughty2004-05-21t02.flac:801b3989e3594e046d0fbdff970ef8b0
mdoughty2004-05-21t03.flac:ee66cd46d75d4e16183930afab59ed8c
mdoughty2004-05-21t04.flac:1d0b7757e11668a41ea4ac69ce62263e
mdoughty2004-05-21t05.flac:4800bc53be53ea2368f79d9a2c067bc5
mdoughty2004-05-21t06.flac:65938650061880974c86c41663b3217c
mdoughty2004-05-21t07.flac:bf01bebe26f9061ebcac8d418c7099b1
mdoughty2004-05-21t08.flac:72007f4eaf442d28e21c7fc7d6cb26ec
mdoughty2004-05-21t09.flac:08c8334bb408ba72417c92227e017974
mdoughty2004-05-21t10.flac:4610fd4b8e5449fec1e8a199210c9309
mdoughty2004-05-21t11.flac:c81b0a4beddf6d0ccd8f13b2381d4e16
mdoughty2004-05-21t12.flac:1ff33913e6901ab1e53cfb795db90f88

shntool output:
    length     expanded size   cdr  WAVE problems filename
     4:00.52       42458348    ---   --   ---xx   mdoughty2004-05-21t01.flac
     2:50.19       30032732    ---   --   ---xx   mdoughty2004-05-21t02.flac
     2:21.54       24999452    ---   --   ---xx   mdoughty2004-05-21t03.flac
     3:01.18       31970780    ---   --   ---xx   mdoughty2004-05-21t04.flac
     3:13.27       34108748    ---   --   ---xx   mdoughty2004-05-21t05.flac
     4:18.22       45562988    ---   --   ---xx   mdoughty2004-05-21t06.flac
     3:57.21       41856236    ---   --   ---xx   mdoughty2004-05-21t07.flac
     2:24.47       25512188    ---   --   ---xx   mdoughty2004-05-21t08.flac
     3:17.40       34844924    ---   --   ---xx   mdoughty2004-05-21t09.flac
     4:55.60       52179164    ---   --   ---xx   mdoughty2004-05-21t10.flac
     0:18.74        3349292    ---   --   ---xx   mdoughty2004-05-21t11.flac
     4:32.50       48098444    ---   --   ---xx   mdoughty2004-05-21t12.flac
    39:12.34         395.75 MB                    (totals for 12 files, 0.5036 overall compression ratio)
md5
flac fingerprint:
mdoughty2004-05-21t01.flac:4ad8c59b28e43edbe9b8064b3978763f
mdoughty2004-05-21t02.flac:801b3989e3594e046d0fbdff970ef8b0
mdoughty2004-05-21t03.flac:ee66cd46d75d4e16183930afab59ed8c
mdoughty2004-05-21t04.flac:1d0b7757e11668a41ea4ac69ce62263e
mdoughty2004-05-21t05.flac:4800bc53be53ea2368f79d9a2c067bc5
mdoughty2004-05-21t06.flac:65938650061880974c86c41663b3217c
mdoughty2004-05-21t07.flac:bf01bebe26f9061ebcac8d418c7099b1
mdoughty2004-05-21t08.flac:72007f4eaf442d28e21c7fc7d6cb26ec
mdoughty2004-05-21t09.flac:08c8334bb408ba72417c92227e017974
mdoughty2004-05-21t10.flac:4610fd4b8e5449fec1e8a199210c9309
mdoughty2004-05-21t11.flac:c81b0a4beddf6d0ccd8f13b2381d4e16
mdoughty2004-05-21t12.flac:1ff33913e6901ab1e53cfb795db90f88

Comments
Date User Comment
etreedb.org
For administrative requests email contact@etreedb.org
This website written by Tom H Anderson and maintained by the etreedb.org community.

Cached: Sun, 17 Jan 2021 06:59:22 EST