Benevento/Russo 05/27/06
Great Plaza @Penns Landing, Philadelphia, PA
Source # 75490
Entered by Mark Goldey
Checksums flac.ffp
Disc Counts 0 / 0
Media Size
Date Circulated
Date Added
06/17/06
07/15/2006
Download Text | Download Zip
Other Sources
Source Summary
Source: (fob/dfc/din) Schoeps CCM4v's > Lunatec V3 > Tascam HD-P2 (24/96)
Conversion: Wavelab 5 (16/44.1 w/UV22 HR) > CDWave > FLAC Frontend (level 6) > flac
Benevento-Russo Duo
Great Plaza at Penn's Landing
Jam on the River
Philadelphia, PA
5/27/06

Source: (fob/dfc/din) Schoeps CCM4v's > Lunatec V3 > Tascam HD-P2 (24/96)

Conversion: Wavelab 5 (16/44.1 w/UV22 HR) > CDWave > FLAC Frontend (level 6) > flac
Taped, converted and seeded by Graham Munda (dueling@magpage.com)


Disc 1

01) (intro)
02) Sunny's Song
03) Play, Pause, Stop
04) Echo Park
05) Becky
06) Soba
07) Best Reason to Buy the Sun
08) 9 x 9


*******************Shntool Output***********************
    length     expanded size   cdr  WAVE problems filename
     0:34.16        6035276    ---   --   ---xx   duo2006-05-27d1t01.flac
     4:17.42       45433628    ---   --   ---xx   duo2006-05-27d1t02.flac
    10:19.03      109198700    ---   --   ---xx   duo2006-05-27d1t03.flac
     3:46.34       39946412    ---   --   ---xx   duo2006-05-27d1t04.flac
     7:08.73       75670940    ---   --   ---xx   duo2006-05-27d1t05.flac
     5:51.05       61928204    ---   --   ---xx   duo2006-05-27d1t06.flac
     6:20.27       67095548    ---   --   ---xx   duo2006-05-27d1t07.flac
     9:02.27       95672348    ---   --   ---xx   duo2006-05-27d1t08.flac
    47:20.02         477.77 MB                    (totals for 8 files, 0.5164 overall compression ratio)
duo2006-05-27d1t01.flac:86a3efec94c99b0891fbea01d716cb09
duo2006-05-27d1t02.flac:735e1807b397047d08b82e51cdadb685
duo2006-05-27d1t03.flac:3edd795a49c9972ed3f6485b8137f95f
duo2006-05-27d1t04.flac:cc99ec7f3ec054d3a9d760b4f241ca6b
duo2006-05-27d1t05.flac:c7beb90166dd78b70ecc7b5dac78b2fe
duo2006-05-27d1t06.flac:18d274769d3d7c099fc4ab511dd417d4
duo2006-05-27d1t07.flac:1d4f6ea8de9e4205f280f7dbfda82af5
duo2006-05-27d1t08.flac:68e9ca10fb544956beda630923eff625

Comments
Date User Comment
etreedb.org
For administrative requests email contact@etreedb.org
This website written by Tom H Anderson and maintained by the etreedb.org community.

Cached: Sun, 24 Jan 2021 10:35:07 EST