Garcia 12/09/77
Gym, S.U.N.Y., Stony Brook, NY
Source Summary
JGB, set II: pitch-corrected version of shnid 4444 (Nak 300s MAC > DAT > CD).
JERRY GARCIA BAND
Gymnasium, State University of New York
Stony Brook, NY
12-09-1977

AUD, Second Set only.
Note: This is a pitch-corrected version of Shnid-4444.


Disc One (56:51)

01 Midnight Moonlight
02 Gommorah
03 Tore Up Over You
04 Simple Twist of Fate


Disc Two (48:56)

01 Reuben and Cherise
02 The Night They Drove Old Dixie Down
03 Lonesome and a Long Way from Home


Here are the original notes from Shnid-4444:
Source: FOB Nakamichi CM-300 Mics, MAC > DAT > Digi001 > SHN. Transfer:
DAT @48 > Digidedesign 001 Optical S/PDIF > HD as Sound Designer 2 @48 >
Pro Tools LE (tracked, downsampled to 44.1, and converted to Wave) > SHN >
xACT (sector boundary errors fixed) -> SHN. Special Thanks to Ryan Shriver
of The Jerry Site for providing the DAT. Transfer by D. Metz.


Source info for this pitch-corrected version:
Shnid-4444 > SHN > TLH (decode) > WAV > WavMerge > Soundforge > CD-Wave >
TLH (for SBE-OK, FLAC compression, and checksums) > FLAC, September 2006.


Note that Shnid-4444 and Shnid-16859 are identical. Both those sources
run noticeably fast. I checked the opening notes of Midnight Moonlight
(key of A) and the final notes of Lonesome and a Long Way (key of C) and
found that the problem was consistent throughout, with the source needing
to be slowed down by -1.4 semitones from start to finish. The correction
was done with Soundforge. I also used SF to make small fades for the start
and end of discs. There were no pauses or tape stoppage on disc one (aprx
57 minutes). It appears that the original tape was likely made on a C-120
cassette. So the break (tape-flip?) after Simple Twist was a logical spot
to divide the two audio discs.


Here's the new shnlen output after pitch correction. The result is 08:27.80
longer than Shnid-4444 (which was 97:20.51).

    length     expanded size   cdr  WAVE problems filename
    16:50.42      178262828    ---   --   -----   jgb1977-12-09d1t01-fixed.wav
    12:02.65      127513724    ---   --   -----   jgb1977-12-09d1t02-fixed.wav
    12:24.25      131300444    ---   --   -----   jgb1977-12-09d1t03-fixed.wav
    15:34.10      164781164    ---   --   -----   jgb1977-12-09d1t04-fixed.wav
    10:32.41      111581276    ---   --   -----   jgb1977-12-09d2t01-fixed.wav
    10:43.32      113500508    ---   --   -----   jgb1977-12-09d2t02-fixed.wav
    27:40.41      292920476    ---   --   -----   jgb1977-12-09d2t03-fixed.wav
   105:48.31     1119860420 B                     (totals for 7 files, 1.0000 overall compression ratio)
There were no sector boundary errors.


MD-5

f2e65d347a878fe13795819453f29e9d *jgb1977-12-09d1t01.flac
7582b10bf2d3c8578f363670a04e8692 *jgb1977-12-09d1t02.flac
75c57a820c12a73ab65a7480b896eafa *jgb1977-12-09d1t03.flac
84d7e668d087cd9efa3ced2c1d27e453 *jgb1977-12-09d1t04.flac
795f999f9a6c9384917e7457772960ef *jgb1977-12-09d2t01.flac
ad4714be0860a506f2dc49c4c3b4c4e9 *jgb1977-12-09d2t02.flac
889da2d4dd7241dd4c99d3913ef5fa19 *jgb1977-12-09d2t03.flac


FFP

jgb1977-12-09d1t01.flac:4a780c4f4482e0b6654510e4848e7d16
jgb1977-12-09d1t02.flac:6d8d15bb6aab7dd9194a3349e9888136
jgb1977-12-09d1t03.flac:b68db3d0ed51b6645c8cd0003d32e224
jgb1977-12-09d1t04.flac:15ff4aa4f56c7f123fda8ec5b7ef4da0
jgb1977-12-09d2t01.flac:b2225491e77407b11e4fe8b6b29882ab
jgb1977-12-09d2t02.flac:8362f53f531df5f2155c8a10feecdae8
jgb1977-12-09d2t03.flac:89c1248d1b8b45d0f7f9c7895346bc7b

ffp
jgb1977-12-09d1t01.flac:4a780c4f4482e0b6654510e4848e7d16
jgb1977-12-09d1t02.flac:6d8d15bb6aab7dd9194a3349e9888136
jgb1977-12-09d1t03.flac:b68db3d0ed51b6645c8cd0003d32e224
jgb1977-12-09d1t04.flac:15ff4aa4f56c7f123fda8ec5b7ef4da0
jgb1977-12-09d2t01.flac:b2225491e77407b11e4fe8b6b29882ab
jgb1977-12-09d2t02.flac:8362f53f531df5f2155c8a10feecdae8
jgb1977-12-09d2t03.flac:89c1248d1b8b45d0f7f9c7895346bc7b
md5
f2e65d347a878fe13795819453f29e9d *jgb1977-12-09d1t01.flac
7582b10bf2d3c8578f363670a04e8692 *jgb1977-12-09d1t02.flac
75c57a820c12a73ab65a7480b896eafa *jgb1977-12-09d1t03.flac
84d7e668d087cd9efa3ced2c1d27e453 *jgb1977-12-09d1t04.flac
795f999f9a6c9384917e7457772960ef *jgb1977-12-09d2t01.flac
ad4714be0860a506f2dc49c4c3b4c4e9 *jgb1977-12-09d2t02.flac
889da2d4dd7241dd4c99d3913ef5fa19 *jgb1977-12-09d2t03.flac

Comments
etreedb.org
For administrative requests email contact@etreedb.org
This website written by Tom H Anderson and maintained by the etreedb.org community.

Cached: Thu, 28 Oct 2021 09:45:19 EDT