John Bell 09/18/94
Monroe Fairgrounds, Monroe, GA
Source # 78391
Entered by Michael
Checksums ffp
Disc Counts 1 / 2
Media Size
Date Circulated
Date Added
01/28/2006
09/30/2006
Download Text | Download Zip
Other Sources
Source Summary
DAT (c) > Sony 59ES > Audiophile 24/96 > Wavelab 5.0 > CDWave > FLAC v.1.7.1 > .flac (6) Transfer by: BobbyHurley
Widespread Panic
September 18, 1994
Monroe Fairgrounds
Monroe GA

Source:  DAUD @ 48 KHz
Taped by:  Unknown  (DAT provided courtesy of Ben Tanen)

Transfer:  DAT (c) > Sony 59ES > Audiophile 24/96 > Wavelab 5.0 > CDWave > FLAC v.1.7.1 > .flac (6)
Transfer by:  BobbyHurley

Disc One

01)  Intro
02)  Ain't Life Grand *
03)  Smokestack Lightning *
04)  Impossible Song
05)  Werewolves of London
06)  Fishwater
07)  And It Stoned Me
08)  Low Rider
09)  Bowlegged Women

Disc Two

01)  Tuning
02)  Who Do You Belong To **
03)  Makes Sense to Me **
04)  End of the Show **
-= Encore =-
05)  Coconut

* - w/ Samantha Woods (White Buffalo)
** - w/ Danny Hutchins (Bloodkin) and Eric Carter (Bloodkin)

[Billed as 'JB & Friends' (John Bell, Michael Houser, David Schools, Todd Nance, and Sunny Ortiz)]

-----------------------------

SHNtool Output
    length     expanded size   cdr  WAVE problems filename
     1:16.28       13472300    ---   --   -----   wsp1994-09-18d1t01.wav
     4:42.17       49784828    ---   --   -----   wsp1994-09-18d1t02.wav
    11:18.70      119763884    ---   --   -----   wsp1994-09-18d1t03.wav
     5:44.61       60825116    ---   --   -----   wsp1994-09-18d1t04.wav
     6:30.27       68859548    ---   --   -----   wsp1994-09-18d1t05.wav
     8:44.68       92593580    ---   --   -----   wsp1994-09-18d1t06.wav
     5:58.44       63254732    ---   --   -----   wsp1994-09-18d1t07.wav
     8:40.33       91805660    ---   --   -----   wsp1994-09-18d1t08.wav
     6:54.74       73203692    ---   --   -----   wsp1994-09-18d1t09.wav
     3:13.60       34186364    ---   --   -----   wsp1994-09-18d2t01.wav
     4:46.53       50575100    ---   --   -----   wsp1994-09-18d2t02.wav
     7:34.22       80137388    ---   --   -----   wsp1994-09-18d2t03.wav
     5:01.74       53270492    ---   --   -----   wsp1994-09-18d2t04.wav
     9:18.40       98525324    ---   --   -----   wsp1994-09-18d2t05.wav
    89:46.71         906.24 MB                    (totals for 14 files, 1.0000 overall compression ratio)
                
------------------------------
ffp
wsp1994-09-18d1t01.flac:a39ca52605ddd955ecad32844160a1b9
wsp1994-09-18d1t02.flac:b0f199e62c3229784af918dc04d19132
wsp1994-09-18d1t03.flac:4b42995cec10d6557624097b4ba473e7
wsp1994-09-18d1t04.flac:0845b172fe627c134022556f39533654
wsp1994-09-18d1t05.flac:c3535fe27bd8f191d6fb7aa9265f7adc
wsp1994-09-18d1t06.flac:07b24a38c210bdbe07631436298811bb
wsp1994-09-18d1t07.flac:bb409e1b381ec49ee591a21527ee29c1
wsp1994-09-18d1t08.flac:32533d300be60f7e7d633f99ec75cd33
wsp1994-09-18d1t09.flac:6a09bc8260c70cccc8f88731ee5265f0
wsp1994-09-18d2t01.flac:d72a51d6ba700322e62f728fd4269e3d
wsp1994-09-18d2t02.flac:279ff7d9f5671172d4a2a864dfdbeab6
wsp1994-09-18d2t03.flac:dd3317d9bb35268b885f3fa4ecea4944
wsp1994-09-18d2t04.flac:425d14a3942263472974df5b14f98ec3
wsp1994-09-18d2t05.flac:c1fe754c3acc6bb4187a272be70b0c6d

Comments
Date User Comment
etreedb.org
For administrative requests email contact@etreedb.org
This website written by Tom H Anderson and maintained by the etreedb.org community.

Cached: Wed, 25 May 2022 21:52:24 EDT