Solstice 12/08/05
Emilio's, Richmond, VA
Source # 78615
Entered by Matt Vernon
Checksums ffp
Disc Counts 0 / 0
Media Size
Date Circulated
Date Added
12/22/05
10/04/2006
Download Text | Download Zip
Other Sources
Source Summary
source: Schoeps mk4>kc5>cmc6>SD 722 (24/96) location: on-stage/xy transfer: SD 722>IEEE1394>Spark XL(dither/resample)>xACT>FLAC taped and transferred by C Crawford
Great local Richmond jazz/funk/electronic band.  Check it out!!!

Solstice
Emilio\'s
Richmond, VA
December 8th, 2005

source:    Schoeps mk4>kc5>cmc6>SD 722 (24/96)
location:  on-stage/xy
transfer:  SD 722>IEEE1394>Spark XL(dither/resample)>xACT>FLAC
taped and transferred by C Crawford

Disc 1/Set 1:
01 - Intro
02 - Tacklebox >
03 - Swingsets
04 - Quid Nunc
05 - Passportal* > Jam*
06 - Daybreak* > Jam*

Disc 2/Set 2:
01 - Mobsters*
02 - The Way Out*
03 - Ship High In Transit*>
04 - Bladeslinger* > Jam*
05 - Improv Jam*

* with DJ Williams


shntool output
*****************************************************************
    length     expanded size   cdr  WAVE problems filename
     1:59.05       21003404    ---   --   ---xx   solstice2005-12-08d1t01.flac
     3:41.11       39010316    ---   --   ---xx   solstice2005-12-08d1t02.flac
     8:02.57       85158908    ---   --   ---xx   solstice2005-12-08d1t03.flac
    13:09.50      139297244    ---   --   ---xx   solstice2005-12-08d1t04.flac
    12:38.74      133885292    ---   --   ---xx   solstice2005-12-08d1t05.flac
    20:08.69      213253532    ---   --   ---xx   solstice2005-12-08d1t06.flac
    14:38.71      155046236    ---   --   ---xx   solstice2005-12-08d2t01.flac
    16:26.39      174022172    ---   --   ---xx   solstice2005-12-08d2t02.flac
     3:15.37       34485068    ---   --   ---xx   solstice2005-12-08d2t03.flac
    15:44.45      166627484    ---   --   ---xx   solstice2005-12-08d2t04.flac
    22:30.74      238314092    ---   --   ---xx   solstice2005-12-08d2t05.flac
   132:17.07     1400103748 B                     (totals for 11 files, 0.6087 overall compression ratio)

ffp

solstice2005-12-08d1t01.flac:563bd6a86564c0498204d8e7fc7c6b26
solstice2005-12-08d1t02.flac:ca411a790a98ea4338c21bbd7981085b
solstice2005-12-08d1t03.flac:1f370bb7edab69708aa1c3171fa60403
solstice2005-12-08d1t04.flac:ae6364d097085d771506a592ded6dae5
solstice2005-12-08d1t05.flac:1662542f320d718db30e48aaf81c3c6c
solstice2005-12-08d1t06.flac:ec02cf45525340ec88cb40290bbd0c1e
solstice2005-12-08d2t01.flac:1b6d51b3f8e84d11b86fa517658ed22e
solstice2005-12-08d2t02.flac:24c1720e1c3f7539d71506cb699e370a
solstice2005-12-08d2t03.flac:6c0c81498e318f0f255b42caa76b3ca9
solstice2005-12-08d2t04.flac:d787b14d4a5f02568add2a8a6ca60f3f
solstice2005-12-08d2t05.flac:6856d1431c95a07ca6b060dff0e9df1b

Comments
Date User Comment
etreedb.org
For administrative requests email contact@etreedb.org
This website written by Tom H Anderson and maintained by the etreedb.org community.

Cached: Sun, 25 Feb 2024 03:06:36 EST